Files 42316
» » January Thompson - Whelmed Flac 2017
Language: English
Size: 323.8 MB
Votes: 829
Downloaded: 31
Category: Lossless
Format: MP3, FLAC
4.9

File list

January Thompson - Whelmed (2017) Flac
  • 01 - Whelmed.flac (38.8 MB)
  • 02 - Whisper.flac (42.4 MB)
  • 03 - Something Shining.flac (27.8 MB)
  • 04 - Delicate.flac (33.3 MB)
  • 05 - Simple Story.flac (30.7 MB)
  • 06 - Like Mirrors Do.flac (28.6 MB)
  • 07 - Testimony.flac (42.5 MB)
  • 08 - Too Soon.flac (27.2 MB)
  • 09 - Touch the Rain.flac (23.0 MB)
  • 10 - You for Me.flac (29.3 MB)
  • cover.jpg (271.8 KB)
  • dr14.txt (1.3 KB)

Added 3 weeks ago in Music - Lossless Downloaded 0 time. 3. MB. 02 - Whisper.

Added 3 weeks ago in Music - Lossless Downloaded 0 time. flac (32. MB). 01 - Whelmed. 4. 03 - Something Shining. 2. 04 - Delicate. 05 - Simple Story. 06 - Like Mirrors D. lac.

Скачать January Thompson - Whelmed. Комментарии (0): Нет добавленных комментариев. Месяц релиза - любой - January February March April May June July August September October November December

Скачать January Thompson - Whelmed. Месяц релиза - любой - January February March April May June July August September October November December. Тип релиза - любой - Album Single Compilation Radioshow EP LP. Период за все время за день за 3 дня за неделю за месяц за полгода за год.

Something Shining, 04:19.

Whelmed 02. Whisper 03. Something Shining 0. Something Shining 04. Delicate 05. Simple Story 06. Like Mirrors Do 07. Testimony 08. Too Soon 09. Touch the Rain 10. You for M. Tracklist - 01. Whelmed 02.

Artist: January Thompson. Style: Indie Pop. Format: MP3 320Kbps

Artist: January Thompson. Format: MP3 320Kbps. Previously on NewAlbumReleases. net: August 3, 2019 - January Thompson – Kintsugi (2019). 6 hours ago VA - 100 Greatest Best Songs Ever (2019) FLAC. 1 day ago 500 Words You Should Know.

January Thompson - Whelmed (2017) Flac. flac42 MB. flac28 MB. flac39 MB. flac33 MB. flac31 MB. lac29 MB. 07 - Testimony. 08 - Too Soon.

flac (3. 9 MB). flac (4. 2 MB). flac (2. flac (3. 1 MB).


Quality-Lossless
Release-2017
Duration-00:49:50
File Size-339 MB
Genre-Electronic
Cover Size-1200px

Analyzed: Whelmed / Artist: January Thompson
DR Peak RMS Duration Title [codec]
DR5 -0.19 dB -9.92 dB 6:04 01 - Whelmed [flac]
DR6 -0.19 dB -8.91 dB 6:25 02 - Whisper [flac]
DR6 -0.19 dB -10.53 dB 4:19 03 - Something Shining [flac]
DR5 -0.19 dB -7.72 dB 4:38 04 - Delicate [flac]
DR6 -0.19 dB -9.15 dB 5:21 05 - Simple Story [flac]
DR7 -0.19 dB -9.58 dB 4:25 06 - Like Mirrors Do [flac]
DR5 -0.19 dB -8.16 dB 6:20 07 - Testimony [flac]
DR5 -0.19 dB -9.54 dB 4:20 08 - Too Soon [flac]
DR5 -0.20 dB -9.65 dB 3:43 09 - Touch the Rain [flac]
DR5 -0.19 dB -7.02 dB 4:09 10 - You for Me [flac]
Number of files: 10
Official DR value: DR6
Sampling rate: 44100 Hz
Average bitrate: 906kbs
Bits per sample: 16 bit

Related music:
Iggy Azalea - In My Defense Flac 2019 download Iggy Azalea - In My Defense Flac 2019
Lossless
English
212.0 MB
4.3
/images/5/9/iggy-azalea-in-my-defense-flac-2019.jpg
RuthAnne - Matters Of The Heart Flac 2019 download RuthAnne - Matters Of The Heart Flac 2019
Lossless
English
297.1 MB
4.6
/images/5/8/ruthanne-matters-of-the-heart-flac-2019.jpg
Dominic Sen - Visitor Flac 2019 download Dominic Sen - Visitor Flac 2019
Lossless
English
265.2 MB
4.0
/images/5/5/dominic-sen-visitor-flac-2019.jpg
Sabrina Carpenter - Singular Act II 2019 download Sabrina Carpenter - Singular Act II 2019
Lossless
English
199.0 MB
4.9
/images/5/2/sabrina-carpenter-singular-act-ii-2019.jpg
Kalie Shorr - Open Book Flac-was95 2019 download Kalie Shorr - Open Book Flac-was95 2019
Lossless
English
302.9 MB
4.8
/images/5/8/kalie-shorr-open-book-flac-was95-2019.jpg
Electric Guest - KIN Flac 2019 download Electric Guest - KIN Flac 2019
Lossless
English
233.2 MB
4.8
/images/5/2/electric-guest-kin-flac-2019.jpg
Jean-Michel Jarre - Planet Jarre Flac-was95 Edition 2018 download Jean-Michel Jarre - Planet Jarre Flac-was95 Edition 2018
Lossless
English
1.2 GB
4.0
/images/5/8/jean-michel-jarre-planet-jarre-flac-was95-edition-2018.jpg
Zaz - Recto Verso Flac 2013 download Zaz - Recto Verso Flac 2013
Lossless
English
490.0 MB
4.3
/images/5/1/zaz-recto-verso-flac-2013.jpg
Nona - Nona Flac 2019 download Nona - Nona Flac 2019
Lossless
English
279.8 MB
4.8
/images/noimage.jpg