Files 42316
» » Jon Lord - Sarabande -was95 24bit Hi-Res Remastered 2019 1976
Language: English
Size: 594.2 MB
Votes: 743
Downloaded: 16
Category: Lossless
Format: MP3, FLAC
4.2

File list

Jon Lord - Sarabande (Remastered 2019) (1976) [24bit Hi-Res]-was95
  • 01 - Fantasia.flac (41.1 MB)
  • 02 - Sarabande.flac (90.7 MB)
  • 03 - Aria.flac (40.8 MB)
  • 04 - Gigue.flac (137.3 MB)
  • 05 - Bourée.flac (129.9 MB)
  • 06 - Pavane.flac (82.3 MB)
  • 07 - Caprice.flac (43.9 MB)
  • 08 - Finale.flac (27.7 MB)
  • [TGx]Downloaded from torrentgalaxy.org .txt (0.6 KB)
  • cover.jpg (582.3 KB)
  • dr14.txt (1.1 KB)
  • Torrent Downloaded from Glodls.to.txt (0.2 KB)
  • Torrent downloaded from limetorrents.cc.txt (0.1 KB)
  • Torrent Downloaded from worldwidetorrents.to (0.1 KB)

2019 Edel Germany GmbH. earMUSIC is a project of Edel.

2019 Edel Germany GmbH. See All. Jon Lord: Concerto for Group and Orchestra. Jon Lord: To Notice Such Things, Evening Song, et al. 2010. Lord: Durham Concerto. Windows (2017 Reissue) . 2017. Live At the Basement.

ALBUM, TITLE: Sarabande (Remastered). FILE FORMAT: FLAC, (tracks) 24 bits, 48 KHz. QUALITY: Lossless. RELEASE YEAR, DATE: 1976/September 27, 2019. COUNTRY: Leicester, England, United Kingdom.

Jon Lord - Sarabande (Remastered 2019) (1976) -was95. Middle Earth Saga: The Hobbit and The Lord of the Rings Extended Trilogy 1080p 10bit BluRay x265 HEVC 6CH-MRN. to 594 MB 2019-09-30 24 2. Lord of the Rings Trilogy BluRay Extended 1080p QEBS5 AAC51 PS3 MP4-FASM. co 2. 3 GB 1970-01-01 1 1. Lord of the Dance p BluRay x264 DD5 1 FGT.

4. 2 MB. 02 - Sarabande. Jon Hassell 2014 Jon Hassell Remixes.

Find many great new & used options and get the best deals for Jon Lord - Sarabande (remastered 2019) CD. .

Packaging should be the same as what is found in a retail store, unless the item is handmade or was packaged by the manufacturer in non-retail packaging, such as an unprinted box or plastic bag. See details for additional description.

As Lord wrote in the liner notes, on this classical-rock fusion album, recorded in Deep Purple's dying days, "The theme behind the music on this album is that of a baroque dance suite; a form of music which was brought to its highest level by Bach. The title of each track is the name of a dance used in one of these dance suites, and I have tried to use the same tempo and feel as an original Sarabande, Gigue et.


Quality-Lossless
Release-1976
Duration-00:50:02
File Size-623 MB
Genre-Rock
Cover Size-1400px

Analyzed: Sarabande (Remastered 2019) / Artist: Jon Lord
DR Peak RMS Duration Title [codec]
DR8 -0.00 dB -14.01 dB 3:31 01 - Fantasia [flac]
DR7 -0.00 dB -11.65 dB 7:24 02 - Sarabande [flac]
DR10 -0.00 dB -15.87 dB 3:46 03 - Aria [flac]
DR7 -0.00 dB -11.10 dB 11:10 04 - Gigue [flac]
DR9 -0.00 dB -13.04 dB 11:07 05 - Bourée [flac]
DR15 -0.00 dB -19.82 dB 7:42 06 - Pavane [flac]
DR6 -0.00 dB -7.49 dB 3:12 07 - Caprice [flac]
DR6 -0.00 dB -8.41 dB 2:06 08 - Finale [flac]
Number of files: 8
Official DR value: DR9
Sampling rate: 48000 Hz
Average bitrate: 1677kbs
Bits per sample: 24 bit

Related music:
Erasure - Wild! 88.2-24bit Edition 1989 Remastered download Erasure - Wild! 88.2-24bit Edition 1989 Remastered
Lossless
English
2.1 GB
4.3
/images/5/0/erasure-wild21-882-24bit-edition-1989-remastered.jpg
Bishop Briggs - CHAMPION 24bit Hi-Res 2019 download Bishop Briggs - CHAMPION 24bit Hi-Res 2019
Lossless
English
358.0 MB
4.1
/images/5/7/bishop-briggs-champion-24bit-hi-res-2019.jpg
Kristin Chenoweth - For The Girls -was95 24bit Hi-Res 2019 download Kristin Chenoweth - For The Girls -was95 24bit Hi-Res 2019
Lossless
English
484.7 MB
4.4
/images/5/1/kristin-chenoweth-for-the-girls-was95-24bit-hi-res-2019.jpg
Inxs - The Swing Flac-was95 1984 download Inxs - The Swing Flac-was95 1984
Lossless
English
310.0 MB
4.9
/images/5/0/inxs-the-swing-flac-was95-1984.jpg
Clare Bowen - Clare Bowen 24bit Hi-Res 2019 download Clare Bowen - Clare Bowen 24bit Hi-Res 2019
Lossless
English
519.7 MB
4.4
/images/5/6/clare-bowen-clare-bowen-24bit-hi-res-2019.jpg
Simple Minds - Reel To Real Cacophony Flac 1979 Remastered 2002 download Simple Minds - Reel To Real Cacophony Flac 1979 Remastered 2002
Lossless
English
263.2 MB
4.2
/images/5/9/simple-minds-reel-to-real-cacophony-flac-1979-remastered-2002.jpg
Neave Trio - Her Voice -was95 24-96 2019 download Neave Trio - Her Voice -was95 24-96 2019
Lossless
English
1.2 GB
4.0
/images/5/5/neave-trio-her-voice-was95-24-96-2019.jpg
Aurora - A Different Kind Of Human – Step 2 24bit Hi-Res 2019 download Aurora - A Different Kind Of Human – Step 2 24bit Hi-Res 2019
Lossless
English
491.0 MB
4.7
/images/5/4/aurora-a-different-kind-of-human-e28093-step-2-24bit-hi-res-2019.jpg
a-ha - Minor Earth, Major Sky Deluxe Edition -was95 24bit Hi-Res 2000 Remastered 2019 download a-ha - Minor Earth, Major Sky Deluxe Edition -was95 24bit Hi-Res 2000 Remastered 2019
Lossless
English
1.8 GB
4.9
/images/5/3/a-ha-minor-earth2c-major-sky-deluxe-edition-was95-24bit-hi-res-2000-remastered-2019.jpg