Files 42316
» » Francis Cabrel-Sarbacane-CD-FLAC-1989-ESCORT
Language: French
Size: 255.1 MB
Votes: 026
Downloaded: 18
Category: Lossless
Format: MP3, FLAC
4.6

File list

  • 02 - C'est Écrit.flac (31.3 MB)
  • 06 - Je Sais Que Tu Danses.flac (30.3 MB)
  • Francis.Cabrel-Sarbacane-CD-FLAC-1989-ESCORT.nfo (1.7 KB)
  • 04 - Rosie.flac (18.5 MB)
  • mediainfo.nfo (16.3 KB)
  • Francis Cabrel - Sarbacane (flac).cue (1.7 KB)
  • 07 - J'ai Peur De l'Avion.flac (23.5 MB)
  • ripping.log (3.5 KB)
  • 03 - Sarbacane.flac (24.2 MB)
  • 00 - Francis Cabrel - Sarbacane (flac).m3u (0.2 KB)
  • 09 - Petite Sirène.flac (18.8 MB)
  • cover.jpg (28.3 KB)
  • 10 - Le Pas Des Ballerines.flac (30.3 MB)
  • 08 - Dormir Debout.flac (29.5 MB)
  • 05 - Tout Le Monde Y Pense.flac (18.3 MB)
  • 01 - Animal.flac (30.4 MB)

FLAC-1989-ESCORT torrent or any other torrent from the Audio FLAC.

FLAC-1989-ESCORT torrent or any other torrent from the Audio FLAC. Francis Cabrel - Sarbacane -. Artist. Francis Cabrel Album. FLAC-1989-ESCORT Ripper. Free Lossless Audio Codec (FLAC) Version. reference libFLAC .

flac18 MB. mediainfo. nfo16 KB. Francis Cabrel - Sarbacane (flac). cue2 KB. 07 - J'ai Peur De l'Avion. log3 KB. 03 - Sarbacane.

Francis Cabrel ‎– Sarbacane. Label: Cbs ‎– pfct 90778. Originally comes in a standard Jewel Case, including a booklet.

Francis Cabrel - Sarbacane (1989) EAC Rip FLAC, IMG+CUE, LOG .

Francis Cabrel - Sarbacane (1989) EAC Rip FLAC, IMG+CUE, LOG 257 MB 47,05 Min Covers Label: CBS Disques Chansons, Songwriter 10 Tracks RAR 3% Re. TITLE "Sarbacane" PERFORMER "Francis Cabrel" INDEX 01 11:21:48 TRACK 04 AUDIO TITLE "Rosie" PERFORMER "Francis Cabrel" INDEX 01 15:30:63 TRACK 05 AUDIO TITLE "Tout Le Monde Y Pense" PERFORMER "Francis Cabrel" INDEX 01 19:20:20 TRACK 06 AUDIO TITLE "Je Sais Que Tu Danses" PERFORMER "Francis Cabrel" INDEX 01 23:24:40 TRACK 07 AUDIO TITLE "J'ai.

You cannot download any of those files from here. 00 - Francis Cabrel - Sarbacane (flac). 05 - Tout Le Monde Y Pense. 06 - Je Sais Que Tu Danses.

Francis Cabrel (born 23 November 1953 in Agen) is a French mposer and guitarist. He has released a number of albums falling mostly within the realm of folk, with occasional forays into blues or country. Several of his songs, such. Cabrel is considered one the most influential French musical artists of all time.

Artist: Francis Cabrel Album: Sarbacane (Remastered) Year: 1989. Tout le monde y pense, 04:04. Je sais que tu danses, 04:51.

Francis cabrel sarbacane lp 33T vinyle ex cover ex original 1989.

Shop with confidence. Francis cabrel sarbacane lp 33T vinyle ex cover ex original 1989.

FRANCIS CABREL - Sarbacane. Artist: FRANCIS CABREL. Album: L'essentiel, 1977 - 2007. Download FRANCIS CABREL - Sarbacane. L'essentiel, 1977 - 2007: Best 2 songs. FRANCIS CABREL - C'est écrit 05:50. FRANCIS CABREL - Je te suivrai 00:10. FRANCIS CABREL: best 2 tracks. FRANCIS CABREL - Elle s'en va vivre ailleurs Carte postale, 2013 03:24. FRANCIS CABREL - Les fontaines du jazz In Extremis, 2015 03:42.



Francis Cabrel - Sarbacane

Artist...............: Francis Cabrel
Album................: Sarbacane
Genre................: Chanson
Source...............: CD
Year.................: 1989
Release..............: Francis.Cabrel-Sarbacane-CD-FLAC-1989-ESCORT
Ripper...............: Rubyripper 0.6.2
Codec................: Free Lossless Audio Codec (FLAC)
Version..............: reference libFLAC 1.3.1
Quality..............: Lossless
Channels.............: Stereo / 44100 HZ / 16 Bit

Tracklisting

01. Francis Cabrel – Animal [05:26]
02. Francis Cabrel – C'est Écrit [05:53]
03. Francis Cabrel – Sarbacane [04:09]
04. Francis Cabrel – Rosie [03:50]
05. Francis Cabrel – Tout Le Monde Y Pense [04:02]
06. Francis Cabrel – Je Sais Que Tu Danses [04:52]
07. Francis Cabrel – J'ai Peur De l'Avion [03:55]
08. Francis Cabrel – Dormir Debout [04:48]
09. Francis Cabrel – Petite Sirène [03:47]
10. Francis Cabrel – Le Pas Des Ballerines [06:20]
Playing Time.........: 47:05
Total Size...........: 255.1 MB

Related music:
Francis Cabrel Les Murs de poussière CD FLAC 1977-ESCORT download Francis Cabrel Les Murs de poussière CD FLAC 1977-ESCORT
Lossless
French
222.5 MB
4.7
/images/5/3/francis-cabrel-les-murs-de-poussic3a8re-cd-flac-1977-escort.jpg
Francis Cabrel-QuelquUn De LIntérieur-CD-FLAC-1983-ESCORT download Francis Cabrel-QuelquUn De LIntérieur-CD-FLAC-1983-ESCORT
Lossless
French
215.3 MB
4.6
/images/5/1/francis-cabrel-quelquun-de-lintc3a9rieur-cd-flac-1983-escort.jpg
Christmas - Christmas With - Connie Francis - TFM download Christmas - Christmas With - Connie Francis - TFM
Lossless
English
242.1 MB
4.1
/images/5/1/christmas-christmas-with-connie-francis-tfm.jpg
The Best of - Le Meilleur de Francis Cabrel download The Best of - Le Meilleur de Francis Cabrel
MP3
French
200.0 MB
4.2
/images/5/9/the-best-of-le-meilleur-de-francis-cabrel.jpg
Francis Cabrel-Samedi soir sur la Terre-CD-FLAC-1994-ESCORT download Francis Cabrel-Samedi soir sur la Terre-CD-FLAC-1994-ESCORT
Lossless
French
282.4 MB
4.7
/images/5/3/francis-cabrel-samedi-soir-sur-la-terre-cd-flac-1994-escort.jpg
Francis Cabrel Les Chemins De Traverse-CD-FLAC-1979-ESCORT download Francis Cabrel Les Chemins De Traverse-CD-FLAC-1979-ESCORT
Lossless
French
194.2 MB
4.6
/images/5/4/francis-cabrel-les-chemins-de-traverse-cd-flac-1979-escort.jpg
Francis Cabrel-In Extremis-CD-FLAC-FLAC-2015-ESCORT download Francis Cabrel-In Extremis-CD-FLAC-FLAC-2015-ESCORT
Lossless
French
289.1 MB
4.8
/images/5/9/francis-cabrel-in-extremis-cd-flac-flac-2015-escort.jpg