Files 42316
» » Radiohead - OK Computer Flac 1997
Language: English
Size: 356.5 MB
Votes: 748
Downloaded: 47
Category: Lossless
Format: MP3, FLAC
4.8

File list

Radiohead - OK Computer (1997)
  • 02. Paranoid Android.flac (45.4 MB)
  • 01. Airbag.flac (33.6 MB)
  • 03. Subterranean Homesick Alien.flac (30.4 MB)
  • 04. Exit Music (For A Film).flac (26.0 MB)
  • 05. Let Down.flac (35.4 MB)
  • 06. Karma Police.flac (30.1 MB)
  • 07. Fitter Happier.flac (10.6 MB)
  • 08. Electioneering.flac (27.8 MB)
  • 09. Climbing Up The Walls.flac (31.2 MB)
  • 10. No Surprises.flac (24.3 MB)
  • 11. Lucky.flac (27.1 MB)
  • 12. The Tourist.flac (34.6 MB)
  • Radiohead - OK Computer (1997).cue (1.0 KB)
  • Radiohead - OK Computer.log (11.7 KB)

Performer: Radiohead Album: OK Computer Label: Parlophone. Made in UK. Catalog 7243 8 55229 2 5, CDNODATA 02 Style: Alternative Rock Year: 1997 Format: FLAC (image . ue) Bitrate: lossless.

Performer: Radiohead Album: OK Computer Label: Parlophone. Performer: Radiohead Album: OK Computer Label: Parlophone. Tracklist: - 01. Radiohead - Airbag 02.

Торрент-трекер NNM-Club - Rock, Alternative, Punk, Metal - Alternative, Punk (Lossless). Pre-gap length 0:00:02.

Rock Art rock Alternative rock Indie rock Progressive rock Experimental rock Electronic. Subterranean Homesick Alien. Exit Music (For a Film).

mputer/Radiohead - OK Computer. mputer/Radiohead - OK Computer. mputer/~Radiohead - OK Computer.

Preferred Audio Format: FLAC. Radiohead - A Moon Shaped Pool (2016). By Lord Kingdom May 8, 2016 in Alternative Rock. Posted June 20, 2017. Leaked Release - June 23, 2017 Genre - Alternative Rock Quality - MP3, 320 kbps CBR, FLAC.

1997 - OK Computer (00:53:23): . irbag (4:44) . aranoid Android (6:23) . ubterranean Homesick Alien (4. . ubterranean Homesick Alien (4:27) . xit Music (for a Film) (4:24) . et Down (4:59) . arma Police (4:21) . itter Happier (1:57) . lectioneering (3:50) . limbing Up the Walls (4:45) 1. o Surprises (3:48). 1. ucky (4:19) 1. he Tourist (5:26). The Bends (1995) сделал Radiohead популярными в Великобритании, а третий альбом OK Computer (1997), посвящённый отчуждению в обществе, принёс Radiohead мировой успех и считается одним из наиболее значимых рок-альбомов 1990-х. В 2000 и 2001 году музыканты записали два экспериментальных альбома Kid A и Amnesiac.

Three 180gram black 12 vinyl containing 23 tracks: OK Computer, 3 previously unreleased studio tracks and 8.A C90 cassette mix tape compiled by the band, taken from OK Computer session archives and demo tapes.

Three 180gram black 12 vinyl containing 23 tracks: OK Computer, 3 previously unreleased studio tracks and 8 B-sides, all newly remastered. The vinyl is housed in a hardcover book along with 40 pages of artwork and lyrics. 104 page notebook and a further 48 page sketchbook of artwork and notes. Additional Info:, Original Released Date: June 16, 1997, Released Date: July 07, 2017, More info. Original Album Remastered: Side A – ip 01. Airbag – 04:42 02.

Ищете треки из альбома OK Computer OKNOTOK исполнителя Radiohead? . The Mighty Mighty Bosstones, World Party, Supergrass.

Ищете треки из альбома OK Computer OKNOTOK исполнителя Radiohead? Тогда заходите на наш сайт - слушайте музыку онлайн и скачивайте бесплатно! . Треки альбома OK Computer OKNOTOK Radiohead слушать онлайн.

Having been residing in cold storage, dark cupboards, and defunct formats for two decades, Radiohead's landmark recording OK Computer is finally given the reissue reboot it so thoroughly deserves. OK Computer OKNOTOK comes entirely remastered from the original analogue tapes and bundled with eight b-sides and most excitingly of all for the Radiohead completists three previously unreleased and long sought after tracks from the OK Computer original studio sessions: I Promise, Lift, and Man Of War.

RADIOHEAD
OK COMPUTER



Prima pubblicazione: 1997
Genere: Alternative Rock
Dischi: 1
Tracce: 11

1. Airbag - 4:44
2. Paranoid Android - 6:23
3. Subterranean Homesick Alien - 4:27
4. Exit Music (For a Film) - 4:24
5. Let Down - 5:00
6. Karma Police - 4:21
7. Electioneering - 3:50
8. Climbing Up the Walls - 4:45
9. No Surprises - 3:48
10. Lucky - 4:20
11. The Tourist - 5:24
Durata totale: 53:26

Rippato da

%GoogleMoogle%

:grazie:

Log rip:

Exact Audio Copy V1.0 beta 3 from 29. August 2011
Report EAC on the extraction executed 29. February 2012, 3:27
Radiohead / OK Computer
Drive: TOSHIBA DVD-ROM SD-R5112 Adapter: 5 ID: 5
Reading mode: Reliability
Use of an exact stream: Yes
disable cache of audio: Yes
Use of indexes C2: No
Read offset correction: 116
Ability to read to area Lead-in and Lead-out: No
Filling of the passed samples with silence: Yes
Removal of blocks with silence in the beginning and the end: No
At calculations CRC zero samples were used: Yes
Interface: Built in Win32-interface for Win NT / 2000
gaps Processing: Added to the previous track
Output format: User encoder
The selected bit rate: 128 kBit / s
Quality: High
Adding ID3-Tag: Yes
compression utility: C: Program Files (x86) FLAC flac.exe
Advanced Options: -V -8 -T "Genre =% genre%" -T "Artist =% artist%" -T "Title =% title%" -T "Album =% albumtitle%" -T "Date =% year % "-T" tracknumber =% tracknr% "-T" Comment =% comment% "% source%
TOC of the extracted CD
Track | Start | Duration | Initial sector | The final sector
-
1 | 0:00.00 | 4:44.30 | 0 | 21329
2 | 4:44.30 | 6:23.37 | 21330 | 50091
3 | 11:07.67 | 4:27.53 | 50092 | 70169
4 | 15:35.45 | 4:24.60 | 70170 | 90029
5 | 20:00.30 | 4:59.20 | 90030 | 112474
6 | 24:59.50 | 4:21.47 | 112475 | 132096
7 | 29:21.22 | 1:57.25 | 132097 | 140896
8 | 31:18.47 | 3:50.48 | 140897 | 158194
9 | 35:09.20 | 4:45.15 | 158195 | 179584
10 | 39:54.35 | 3:48.40 | 179585 | 196724
11 | 43:43.00 | 4:19.47 | 196725 | 216196
12 | 48:02.47 | 5:24.40 | 216197 | 240536

SEEDBOX 24/7

Related music:
Radiohead - The Best Of download Radiohead - The Best Of
Album
English
192.4 MB
4.8
/images/5/3/radiohead-the-best-of.jpg
The Best Of - Booker T And The MGs - 1984 FLAC download The Best Of - Booker T And The MGs - 1984 FLAC
Lossless
English
219.5 MB
4.7
/images/5/2/the-best-of-booker-t-and-the-mgs-1984-flac-.jpg
Weezer - Weezer Flac The Blue Album 1994 download Weezer - Weezer Flac The Blue Album 1994
Lossless
English
285.2 MB
4.8
/images/5/2/weezer-weezer-flac-the-blue-album-1994.jpg
Radiohead - Arms and Legs the Story So Far-2011 MP3 VBR BLOWA TLS download Radiohead - Arms and Legs the Story So Far-2011 MP3 VBR BLOWA TLS
MP3
English
155.9 MB
4.0
/images/5/5/radiohead-arms-and-legs-the-story-so-far-2011-mp3-vbr-blowa-tls.jpg
Radiohead - Greatest Hits CDRip download Radiohead - Greatest Hits CDRip
MP3
English
130.0 MB
4.4
/images/5/6/radiohead-greatest-hits-cdrip-.jpg
Radiohead OK Computer OKNOTOK 1997 2017 2CD 320 download Radiohead OK Computer OKNOTOK 1997 2017 2CD 320
Album
English
213.9 MB
4.2
/images/5/0/radiohead-ok-computer-oknotok-1997-2017-2cd-320.jpg
Portishead 1997 FLAC+CUE RLG download Portishead 1997 FLAC+CUE RLG
Lossless
English
289.5 MB
4.9
/images/5/5/portishead-1997-flac2bcue-rlg.jpg
Third Eye Blind 1997 FLAC+CUE RLG download Third Eye Blind 1997 FLAC+CUE RLG
Lossless
English
390.8 MB
4.9
/images/5/0/third-eye-blind-1997-flac2bcue-rlg.jpg
Fat 1997 FLAC+CUE RLG download Fat 1997 FLAC+CUE RLG
Lossless
English
299.3 MB
4.8
/images/5/5/fat-1997-flac2bcue-rlg.jpg