Files 42316
» » Simple Minds - Real Life Flac 1991
Language: English
Size: 353.7 MB
Votes: 573
Downloaded: 63
Category: Lossless
Format: MP3, FLAC
4.4

File list

Simple Minds - Real Life (1991) Flac
  • 01 - Real Life.flac (33.6 MB)
  • 02 - See The Lights.flac (28.4 MB)
  • 03 - Let There Be Love.flac (35.5 MB)
  • 04 - Woman.flac (27.8 MB)
  • 05 - Stand By Love.flac (32.1 MB)
  • 06 - Let The Children Speak.flac (29.2 MB)
  • 07 - African Skies.flac (31.2 MB)
  • 08 - Ghostrider.flac (24.8 MB)
  • 09 - Banging On The Door (Intro).flac (6.8 MB)
  • 10 - Banging On The Door.flac (29.3 MB)
  • 11 - Travelling Man.flac (26.8 MB)
  • 12 - Rivers Of Ice.flac (19.9 MB)
  • 13 - When Two Worlds Collide.flac (27.3 MB)
  • [TGx]Downloaded from torrentgalaxy.org .txt (0.6 KB)
  • cover.jpg (890.6 KB)
  • dr14.txt (1.5 KB)
  • Torrent Downloaded from Glodls.to.txt (0.2 KB)
  • Torrent downloaded from limetorrents.cc.txt (0.1 KB)
  • Torrent Downloaded from worldwidetorrents.to (0.1 KB)

Simple Minds - The Best Of Simple Minds (2001) 2 SACD, Compilation [FLAC . Pop/Rock) Simple Minds - Themes (25 CD-singles box set) - 2008, FLAC (tracks+. Simple Minds - Real Life (1991) Flac.

Simple Minds - The Best Of Simple Minds (2001) 2 SACD, Compilation

Real Life is the ninth studio album by Scottish rock band Simple Minds, released in April 1991. This was the first Simple Minds album recorded without keyboardist and original bandmember Mick MacNeil, who left the band shortly after the previous tour completed in 1990. The core band on this album comprise only Jim Kerr, Charlie Burchill, and Mel Gaynor (who all appear on the rear cover), with the remaining personnel all being session musicians.

Simple Minds - Real Life (1991). по названию по исполнителю. Simple Minds - Real Life –3. Let There Be Love. Simple Minds –Real Life. Simple Minds - Real Life (1991) –Travelling Man. 4:16. Simple Minds Real Life –Simple Minds Real Life 09. 4:01. Simple Minds - Real Life –When Two Worlds Collide. Simple Minds Real Life –Simple Minds Real Life 04. 4:15. Raven Maize (The Best Of Simple Minds) –The Real Life (club mix). Simple Minds - Real Life (1991) –African Skies. Simple Minds - Real Life –4. Woman.

リースのクレジット、レビュー、トラックを確認し、購入。

Matrix, Runout (Runout Side A): V-2660-A - 19-2-91 I ∆ . INDS M. Matrix, Runout (Runout Side B): V-2660-B - 21-2-91 II ∆ . Matrix, Runout (Variant Runout Side A): V 2660 A-2J-1-1.

Simple Minds (Scotland) – Real Life (Vinil rip). Simple Minds - Real Life – 9. Instrumental Bridge To Banging On The Door. Simple Minds - Real Life (1991) – Travelling Man. 3:54. Simple Minds – Real Life. Simple Minds – The Real Life By Raven Maize. Simple Minds - Real Life (1991) – African Skies. Raven Maize (The Best Of Simple Minds) – The Real Life (club mix). Simple Minds Real Life – Simple Minds Real Life 03. 3:58. Simple Minds Real Life – Simple Minds Real Life 02. 3:31. Simple Minds Real Life – Simple Minds Real Life 12. 4:23. Simple Minds Real Life – Simple Minds Real Life 07. 4:57. Simple Minds Real Life 1991 – Let There Be Love.

Simple Minds Related artists. 1991 - Real Life/Scans/booklet5. 1991 - Real Life/Scans/booklet2. 1991 - Real Life/Scans/back. 1991 - Real Life/Scans/cd. 1991 - Real Life/Scans/booklet3. 1991 - Real Life/Scans/booklet4. 1991 - Real Life/Scans/booklet6. 1991 - Real Life/Scans/booklet1. 1991 - Real Life/Simple Minds - Real Life. 1991 - Real Life/Real Life. 1991 - Real Life/foo dr.

Simple Minds-Real Life CD. 41. 1 RU. Artist: Simple Minds. 1 rub. P&p: + 82. 5 rub p&p.


Quality-Lossless
Release-1991
Duration-00:52:09
File Size-370.9 MB
Genre-Rock
Cover Size-1400px

Analyzed: Real Life / Artist: Simple Minds
DR Peak RMS Duration Title [codec]
DR8 -0.06 dB -12.01 dB 4:53 01 - Real Life [flac]
DR8 -0.14 dB -11.92 dB 4:21 02 - See The Lights [flac]
DR8 -0.06 dB -10.63 dB 4:57 03 - Let There Be Love [flac]
DR8 -0.12 dB -13.09 dB 4:40 04 - Woman [flac]
DR8 -0.06 dB -10.07 dB 4:04 05 - Stand By Love [flac]
DR9 -0.07 dB -12.62 dB 4:16 06 - Let The Children Speak [flac]
DR10 -0.36 dB -13.42 dB 4:51 07 - African Skies [flac]
DR9 -0.06 dB -11.78 dB 3:22 08 - Ghostrider [flac]
DR12 -5.84 dB -21.17 dB 1:15 09 - Banging On The Door (Intro) [flac]
DR10 -0.23 dB -13.80 dB 4:21 10 - Banging On The Door [flac]
DR7 -0.31 dB -8.67 dB 3:33 11 - Travelling Man [flac]
DR10 -0.43 dB -16.48 dB 3:29 12 - Rivers Of Ice [flac]
DR9 -0.25 dB -12.42 dB 4:00 13 - When Two Worlds Collide [flac]
Number of files: 13
Official DR value: DR9
Sampling rate: 44100 Hz
Average bitrate: 934kbs
Bits per sample: 16 bit

Related music:
Erasure - Wild! 88.2-24bit Edition 1989 Remastered download Erasure - Wild! 88.2-24bit Edition 1989 Remastered
Lossless
English
2.1 GB
4.3
/images/5/0/erasure-wild21-882-24bit-edition-1989-remastered.jpg
Erasure - I Say I Say I Say 88.2-24bit 1994 download Erasure - I Say I Say I Say 88.2-24bit 1994
Lossless
English
821.6 MB
4.3
/images/5/8/erasure-i-say-i-say-i-say-882-24bit-1994.jpg
Janice Hagan ‎– Let's Misbehave Flac 2004 download Janice Hagan ‎– Let's Misbehave Flac 2004
Lossless
English
410.2 MB
4.7
/images/5/6/janice-hagan-e2808ee28093-let27s-misbehave-flac-2004.jpg
Simple Minds - Sons And Fascination 1981 Remastered Flac 2012 download Simple Minds - Sons And Fascination 1981 Remastered Flac 2012
Lossless
English
419.9 MB
4.1
/images/5/2/simple-minds-sons-and-fascination-1981-remastered-flac-2012.jpg
Clare Bowen - Clare Bowen 24bit Hi-Res 2019 download Clare Bowen - Clare Bowen 24bit Hi-Res 2019
Lossless
English
519.7 MB
4.4
/images/5/6/clare-bowen-clare-bowen-24bit-hi-res-2019.jpg
Simple Minds - Reel To Real Cacophony Flac 1979 Remastered 2002 download Simple Minds - Reel To Real Cacophony Flac 1979 Remastered 2002
Lossless
English
263.2 MB
4.2
/images/5/9/simple-minds-reel-to-real-cacophony-flac-1979-remastered-2002.jpg
Skillet - Awake 24-96 Hi-Res 2009 download Skillet - Awake 24-96 Hi-Res 2009
Lossless
English
904.9 MB
4.9
/images/5/2/skillet-awake-24-96-hi-res-2009.jpg
Pink Floyd - The Dark Side Of The Moon 96hz-24bit 1973 1994 download Pink Floyd - The Dark Side Of The Moon 96hz-24bit 1973 1994
Lossless
English
800.8 MB
4.1
/images/5/3/pink-floyd-the-dark-side-of-the-moon-96hz-24bit-1973-1994.jpg
Simple Minds - Street Fighting Years Flac 1989 download Simple Minds - Street Fighting Years Flac 1989
Lossless
English
387.0 MB
4.2
/images/5/6/simple-minds-street-fighting-years-flac-1989.jpg