Files 42316
» » Elis Regina - Poema De Amor Eac Flac Cue
Language: Portuguese
Size: 205.3 MB
Votes: 805
Downloaded: 43
Category: Lossless
Format: MP3, FLAC
4.1

File list

Cover
  • Bac Poema.jpg (76.1 KB)
  • cd Poema.gif (91.5 KB)
  • Front Poema.JPG (56.7 KB)
  • (1) Poema - Elis Regina.flac (19.1 MB)
  • (10) Cancao De Enganar Despedida - Elis Regina.flac (21.1 MB)
  • (11) Confissao - Elis Regina.flac (12.7 MB)
  • (12) Podes Voltar - Elis Regina.flac (20.4 MB)
  • (2) Pororo-Popo - Elis Regina.flac (11.4 MB)
  • (3) Da-me Um Beijo (Kiss me, Kiss Me) - Elis Regina.flac (22.3 MB)
  • (4) Nos Teus Lábios - Elis Regina.flac (14.8 MB)
  • (5) Vou Comprar um Coração - Elis Regina.flac (11.3 MB)
  • (6) Meu Pequeno Mundo de Ilusão (My Little Corner Of The World) - Elis Regina.flac (16.9 MB)
  • (7) As Secretarias (Las Secretarias) - Elis Regina.flac (17.0 MB)
  • (8) Saudade e Recordar - Elis Regina.flac (18.6 MB)
  • (9) Pizzicati Pizzicato - Elis Regina.flac (19.3 MB)
  • 00._%ElisRegina%PoemaDeAmor%.nfo (2.3 KB)
  • Elis Regina - Poema de Amor.log (13.5 KB)
  • Elis Regina - Poema de Amor.m3u8 (1.2 KB)
  • Poema de Amor.cue (2.3 KB)

August 2009, 8:39 Elis Regina, Elis Used drive : TDK CDRW5200B Adapter: 1 ID: 1 Read mode : Secure Utilize accurate stream : Yes Defeat audio cache : Yes Make use of C2 pointers : No Read offset correction : 6 Overread into.

August 2009, 8:39 Elis Regina, Elis Used drive : TDK CDRW5200B Adapter: 1 ID: 1 Read mode : Secure Utilize accurate stream : Yes Defeat audio cache : Yes Make use of C2 pointers : No Read offset correction : 6 Overread into Lead-In and Lead-Out : No Fill up missing offset samples with silence : Yes Delete leading and trailing silent blocks : No Null. 57 Peak level 10. % Track quality 10. % Test CRC 1739FD69 Copy CRC 1739FD69 Track.

Find elis regina and jorge ben from a vast selection of Records. Elis regina - poema de amor new vinyl.

Da-Me Um Beijo, 03:25. Nos Teus Labios, 02:27. Vou Comprar Um Coraçao, 01:54. Meu Pequeno Mundo De Ilusao, 02:37. Saudade É Recordar, 03:00.

Tracklist: 1. Elis Regina - Las Secretarias 2. Elis Regina - Poema 3. Elis Regina - Cancâo de Enganar Despedida 4. Elis Regina - Da-Me um Beijo 5. Elis Regina - Confissâo 6. Elis Regina - Poròro-Popò 7. Elis Regina - Vou Comprar um Coracâo 8. Elis Regina - Meu Pequeno Mundo. Elis Regina - Meu Pequeno Mundo de Ilusao 9. Elis Regina - Pizzicati-Pizzicato 10.

wav" WAVE TRACK 01 AUDIO TITLE "Na Batucada Da Vida" PERFORMER "Elis Regina" INDEX 01 00:00:00 TRACK 02 AUDIO TITLE "Travessia" PERFORMER "Elis Regina" INDEX 00 03:21:62 FILE.

Album: Bossa Nova History, Vol. 9 (Amor de Bossa Nova). Download Elis Regina - Poema. Bossa Nova History, Vol. 9 (Amor de Bossa Nova): Best 2 songs. Elis Regina - As Coisas Que Eu Goslo 02:24. Elis Regina - Garoto Ultimo Tipo 02:43. Album: Bossa Nova History, Vol. Elis Regina: best 2 tracks. Elis Regina - Águas de Março Um Dia, 2011 03:48. Cesar Camargo Mariano, Chico Batera, Elis Regina, Helio Delmiro - Madalena Elis, 1996 02:57.

Poema de Amor is the second album by Brazilian music superstar Elis Regina, It was released in 1962.

Poema de amor Tracklist. Poema de Amor is the second album by Brazilian music superstar Elis Regina, It was released in 1962. Poema de amor Q&A. More Elis Regina albums. Show all albums by Elis Regina.

Artist:Elis Regina Title Of Album:Collection Year Of Release:1961 - 2004 Label:Various Genre:Bossa Nova, Vocal Jazz,Pop Quality . 01. Viva A Brodolandia (1961) 02. Poema de Amor (1952) 03. Elis Especial (1968) 04. Como & Porque (1969) 05.

Artist:Elis Regina Title Of Album:Collection Year Of Release:1961 - 2004 Label:Various Genre:Bossa Nova, Vocal Jazz,Pop Quality:mp3/Ape/Flac (tracks/image+.

Bossa Nova, MPB) Elis Regina - Poema de Amor - 1962 (Remastered 2006) . Elis Regina - Trem Azul.

Bossa Nova, MPB) Elis Regina - Poema de Amor - 1962 (Remastered 2006), FLAC (tracks+. org 211 MB 2017-01-22 4 0. (Bossa Nova) Elis Regina & Toots Thielemans - Elis & Toots (1969) - 2012, FLAC (image+. Bossa Nova/Vocal Jazz) Elis Regina - A Arte De Elis Regina (The Best Of) (Remastered) - 2004, FLAC (image+. to 378 MB 2012-08-05 5 0. Elis Regina e Tom Jobim-Elis e Tom(Tntvillage).





Artist: Elis Regina
Title Of Album: Poema De Amor
Etichetta: Som Livre
Pubblicazione: LP , CD
Genre: Musica Popular Brasileira
Source: CD
Playing Time: 33.39
Total Size: 205,04 MB
Quality: FLAC+Cue+Log+Info+Cover[Front + Back + CD]
Bitrate: Lossless


1. Poema - 3:11
2. Poropó pó pó - 1:54
3. Dá-me um beijo (Kiss Me, Kiss Me) - 3:19
4. Nos teus lábios - 2:23
5. Vou comprar um coração - 1:47
6. Meu pequeno mundo de ilusão (My Little Corner of the World) - 2:30
7. As secretárias (Las secretárias) - 2:47
8. Saudade é recordar - 2:54
9. Pizzicati Pizzicato - 3:08
10. Canção de enganar despedida - 3:22
11. Confissão - 1:58
12. Podes voltar - 3:25


"Although she's (kind of) allowed out of the jovem guarda kiddie ghetto, the material on this second album is still pretty old-fashioned and tame... Nary a bossa nova tune to be seen, although an early composition from Waltel Branco is kind of noteworthy. Mostly these are cha-cha-chas, ballads and boleros, kitschy music that imitates Spanish-language pop rather than the homegrown revolution of the time... Still, there were several bandleaders involved and gafieira elder Severino Araujo adds some zingy big-band jazz riffs on a few tunes. Hard to tell who did what (the credits don't tell, but it may be safe to assume Araujo was backing Regina on the uptempo "Pororo-Popo," where she lets loose with a little Elza Soares-style scatting... It's a cute album, but all very poppy and safe... The same formula would continue until '65 when she switched over to Philips, and got a bit brassier and more cutting edge. Still, as a teenager, Elis exhibited amazing vocal power and stylistic strength. Definitely worth checking out."

Quote:

Exact Audio Copy V1.0 beta 3 from 29. August 2011
EAC extraction logfile from 28. June 2012, 19:49
Elis Regina / Poema de Amor
Used drive : HL-DT-STDVDRAM GSA-T40N Adapter: 0 ID: 0
Read mode : Secure
Utilize accurate stream : Yes
Defeat audio cache : Yes
Make use of C2 pointers : No
Read offset correction : 667
Overread into Lead-In and Lead-Out : No
Fill up missing offset samples with silence : Yes
Delete leading and trailing silent blocks : No
Null samples used in CRC calculations : Yes
Used interface : Native Win32 interface for Win NT & 2000
Gap handling : Appended to previous track
Used output format : User Defined Encoder
Selected bitrate : 896 kBit/s
Quality : High
Add ID3 tag : No
Command line compressor : C:Program FilesExact Audio CopyFLACFLAC.EXE
Additional command line options : -8 -V -T "ARTIST=%artist%" -T "TITLE=%title%" -T "ALBUM=%albumtitle%" -T "DATE=%year%" -T "TRACKNUMBER=%tracknr%" -T "GENRE=%genre%" -T "COMMENT=%comment%" -T "BAND=%albuminterpret%" -T "ALBUMARTIST=%albuminterpret%" -T "COMPOSER=%composer%" %haslyrics%--tag-from-file=LYRICS="%lyricsfile%"%haslyrics% -T "DISCNUMBER=%cdnumber%" -T "TOTALDISCS=%totalcds%" -T "TOTALTRACKS=%numtracks%" %hascover%--picture="%coverfile%"%hascover% %source% -o %dest%
TOC of the extracted CD
Track | Start | Length | Start sector | End sector
-
1 | 0:00.00 | 3:15.04 | 0 | 14628
2 | 3:15.04 | 1:57.42 | 14629 | 23445
3 | 5:12.46 | 3:23.27 | 23446 | 38697
4 | 8:35.73 | 2:26.20 | 38698 | 49667
5 | 11:02.18 | 1:52.07 | 49668 | 58074
6 | 12:54.25 | 2:36.15 | 58075 | 69789
7 | 15:30.40 | 2:52.71 | 69790 | 82760
8 | 18:23.36 | 2:59.56 | 82761 | 96241
9 | 21:23.17 | 3:14.07 | 96242 | 110798
10 | 24:37.24 | 3:28.19 | 110799 | 126417
11 | 28:05.43 | 2:02.44 | 126418 | 135611
12 | 30:08.12 | 3:31.03 | 135612 | 151439
Track 1
Filename H:MY EAC[.FLAC]Elis Regina - Poema De Amor Poema - Elis Regina.flac
Pre-gap length 0:00:02.00
Peak level 98.2 %
Extraction speed 1.6 X
Track quality 100.0 %
Test CRC 1F4C4AA7
Copy CRC 1F4C4AA7
Accurately ripped (confidence 1) [D1913C8C] (AR v1)
Copy OK
Track 2
Filename H:MY EAC[.FLAC]Elis Regina - Poema De Amor Pororó-Popó - Elis Regina.flac
Pre-gap length 0:00:03.00
Peak level 98.3 %
Extraction speed 1.7 X
Track quality 100.0 %
Test CRC DD22A76B
Copy CRC DD22A76B
Accurately ripped (confidence 1) [616B7FEA] (AR v1)
Copy OK
Track 3
Filename H:MY EAC[.FLAC]Elis Regina - Poema De Amor Dá-me Um Beijo (Kiss me, Kiss Me) - Elis Regina.flac
Pre-gap length 0:00:03.00
Peak level 98.3 %
Extraction speed 1.9 X
Track quality 100.0 %
Test CRC 93F00F36
Copy CRC 93F00F36
Accurately ripped (confidence 1) [94ABBB1D] (AR v1)
Copy OK
Track 4
Filename H:MY EAC[.FLAC]Elis Regina - Poema De Amor Nos Teus Lábios - Elis Regina.flac
Pre-gap length 0:00:04.00
Peak level 98.2 %
Extraction speed 2.2 X
Track quality 100.0 %
Test CRC BC6B938E
Copy CRC BC6B938E
Accurately ripped (confidence 1) [37B84915] (AR v1)
Copy OK
Track 5
Filename H:MY EAC[.FLAC]Elis Regina - Poema De Amor Vou Comprar um Coração - Elis Regina.flac
Pre-gap length 0:00:03.00
Peak level 98.2 %
Extraction speed 2.1 X
Track quality 100.0 %
Test CRC B05DAB5B
Copy CRC B05DAB5B
Accurately ripped (confidence 1) [BD93BB05] (AR v1)
Copy OK
Track 6
Filename H:MY EAC[.FLAC]Elis Regina - Poema De Amor Meu Pequeno Mundo de Ilusão (My Little Corner Of The World) - Elis Regina.flac
Pre-gap length 0:00:03.00
Peak level 98.2 %
Extraction speed 2.6 X
Track quality 100.0 %
Test CRC 03A97795
Copy CRC 03A97795
Accurately ripped (confidence 1) [F27FA6AB] (AR v1)
Copy OK
Track 7
Filename H:MY EAC[.FLAC]Elis Regina - Poema De Amor As Secretárias (Las Secretarias) - Elis Regina.flac
Pre-gap length 0:00:03.00
Peak level 98.2 %
Extraction speed 2.3 X
Track quality 99.9 %
Test CRC 53BEAB3F
Copy CRC 53BEAB3F
Accurately ripped (confidence 1) [B1CD7DEC] (AR v1)
Copy OK
Track 8
Filename H:MY EAC[.FLAC]Elis Regina - Poema De Amor Saudade É Recordar - Elis Regina.flac
Pre-gap length 0:00:03.00
Peak level 98.2 %
Extraction speed 2.6 X
Track quality 100.0 %
Test CRC E1D787FC
Copy CRC E1D787FC
Accurately ripped (confidence 1) [C16A1F4F] (AR v1)
Copy OK
Track 9
Filename H:MY EAC[.FLAC]Elis Regina - Poema De Amor Pizzicati Pizzicato - Elis Regina.flac
Pre-gap length 0:00:03.00
Peak level 98.2 %
Extraction speed 2.8 X
Track quality 100.0 %
Test CRC 466B67B4
Copy CRC 466B67B4
Accurately ripped (confidence 1) [F3FC7152] (AR v1)
Copy OK
Track 10
Filename H:MY EAC[.FLAC]Elis Regina - Poema De Amor Canção De Enganar Despedida - Elis Regina.flac
Pre-gap length 0:00:03.00
Peak level 98.2 %
Extraction speed 2.2 X
Track quality 100.0 %
Test CRC 521F35C4
Copy CRC 521F35C4
Accurately ripped (confidence 1) [86070C78] (AR v1)
Copy OK
Track 11
Filename H:MY EAC[.FLAC]Elis Regina - Poema De Amor Confissão - Elis Regina.flac
Pre-gap length 0:00:03.00
Peak level 98.3 %
Extraction speed 2.7 X
Track quality 100.0 %
Test CRC B30FAC01
Copy CRC B30FAC01
Accurately ripped (confidence 1) [A247F8B9] (AR v1)
Copy OK
Track 12
Filename H:MY EAC[.FLAC]Elis Regina - Poema De Amor Podes Voltar - Elis Regina.flac
Pre-gap length 0:00:03.00
Peak level 98.2 %
Extraction speed 2.7 X
Track quality 100.0 %
Test CRC 80AF3B8E
Copy CRC 80AF3B8E
Accurately ripped (confidence 1) [AE2D8D97] (AR v1)
Copy OK
All tracks accurately ripped
No errors occurred
End of status report
==== Log checksum EB09CA7D83CE25F631F9029C55EBFD79E982F004518375108116B8CBD80F7393 ====



Related music:
Caetano Veloso - Fiina Estampa ao Vivo Flac download Caetano Veloso - Fiina Estampa ao Vivo Flac
Lossless
Portuguese
361.6 MB
4.2
/images/5/2/caetano-veloso-fiina-estampa-ao-vivo-flac-.jpg
Leila Pinheiro - Isso e Bossa Nova Flac download Leila Pinheiro - Isso e Bossa Nova Flac
Lossless
Portuguese
295.8 MB
4.2
/images/5/7/leila-pinheiro-isso-e-bossa-nova-flac-.jpg
Elis Regina - Montreux Jazz Festival Flac Cue download Elis Regina - Montreux Jazz Festival Flac Cue
Lossless
English
447.4 MB
4.1
/images/5/8/elis-regina-montreux-jazz-festival-flac-cue-.jpg
Elis Regina - Como e porque Flac download Elis Regina - Como e porque Flac
Lossless
Portuguese
264.6 MB
4.2
/images/5/2/elis-regina-como-e-porque-flac-.jpg
Milton Nascimento - Millennium 2000 download Milton Nascimento - Millennium 2000
Album
Portuguese
448.4 MB
4.7
/images/5/4/milton-nascimento-millennium-2000.jpg
Zimbo Trio - Tributo a Elis Regina Flac download Zimbo Trio - Tributo a Elis Regina Flac
Lossless
Portuguese
342.8 MB
4.1
/images/5/3/zimbo-trio-tributo-a-elis-regina-flac-.jpg
Elis Regina e Jair Rodrigues - Dois Na Bossa Eac Flac Cue download Elis Regina e Jair Rodrigues - Dois Na Bossa Eac Flac Cue
Lossless
Portuguese
175.9 MB
4.7
/images/5/0/elis-regina-e-jair-rodrigues-dois-na-bossa-eac-flac-cue-.jpg
Various Artists - Brasil 10 cds Flac download Various Artists - Brasil 10 cds Flac
Lossless
Portuguese
4.1 GB
4.9
/images/5/1/various-artists-brasil-10-cds-flac-.jpg
VA - Sambalero @flac Bossa Nova download VA - Sambalero @flac Bossa Nova
Lossless
Spanish
236.7 MB
4.6
/images/5/9/va-sambalero-40flac-bossa-nova.jpg