Files 42316
» » John Coltrane - Ballads Eac Flac Cue Edition Jazz Planet
Language: English
Size: 491.5 MB
Votes: 326
Downloaded: 57
Category: Lossless
Format: MP3, FLAC
4.0

File list

Cover
  • 01.jpg (116.7 KB)
  • booklet 02.jpg (205.4 KB)
  • booklet 03.jpg (215.5 KB)
  • booklet 04.jpg (146.1 KB)
  • booklet 05.jpg (139.1 KB)
  • booklet 06.jpg (173.2 KB)
  • cd back.jpg (116.6 KB)
  • cdfront.jpg (40.4 KB)
  • info.txt (20.4 KB)
John Coltrane - Ballads (Deluxe Edition) CD1
  • John Coltrane Quartet - Ballads [Deluxe Edition].cue (1.3 KB)
  • John Coltrane Quartet - Ballads [Deluxe Edition].flac (191.9 MB)
  • John Coltrane Quartet - Ballads [Deluxe Edition].log (2.0 KB)
John Coltrane - Ballads (Deluxe Edition) CD2
  • John Coltrane - Ballads (Deluxe Edition) CD2.cue (1.9 KB)
  • John Coltrane - Ballads (Deluxe Edition) CD2.flac (298.4 MB)
  • John Coltrane - Ballads (Deluxe Edition) CD2.log (2.4 KB)

10 hours ago FaceGen Artist Pro .

He had been in the record business as a producer long before I met him. But he loved jazz

He had been in the record business as a producer long before I met him. But he loved jazz. He understood the relationship between jazz music and big record companies. Major corporations," he used to call them.

John Coltrane EAC Jazz Hard Bop Experimental Big Band Post Bop Modal .

John Coltrane EAC Jazz Hard Bop Experimental Big Band Post Bop Modal Music Saxophone McCoy Tiner. Throughout John Coltrane's discography there are a handful of decisive and controversial albums that split his listening camp into factions. Generally, these occur in his later-period works such as Om and Ascension, which push into some pretty heady blowing. With Ballads he looks into the warmer side of things, a path he would take with both Johnny Hartman (on John Coltrane & Johnny Hartman) and with Duke Ellington (on Duke Ellington and John Coltrane). Here he lays out for McCoy Tyner mostly, and the results positively shimmer at times.

Tracklist: 01. Say It (Over And Over Again) (Frank Loesser-Jimmy McHugh) 02.

Жанр: Jazz, bebop, free jazz Год выпуска диска: 1991 Производитель диска: США Label: Prestige Аудио .

Жанр: Jazz, bebop, free jazz Год выпуска диска: 1991 Производитель диска: США Label: Prestige Аудио кодек: FLAC Тип рипа: tracks+. cue Битрейт аудио: lossless Продолжительность: 18:20:26. January 2008 EAC extraction logfile from 28. June 2009, 19:07 John Coltrane, The Prestige Recordings 1 Used drive : Optiarc DVD RW AD-5170A Adapter: 0 ID: 0 Read mode : Secure Utilize accurate stream : Yes Defeat audio cache : Yes Make use of C2 pointers : No Read offset correction : 48 Overread into Lead-In and Lead-Out : No Fill up missing offset samples with silence : Yes Delete leading and.

Exact Audio Copy V. 9 prebeta 4 from 23. January 2008 EAC extraction logfile from 14. December 2008, 20:12 Radiohead, World Ballads Collection Used drive : SONY DVD-ROM DDU1615 Adapter: 3 ID: 0 Read mode : Secure Utilize accurate stream : Yes Defeat audio cache : Yes Make. December 2008, 20:12 Radiohead, World Ballads Collection Used drive : SONY DVD-ROM DDU1615 Adapter: 3 ID: 0 Read mode : Secure Utilize accurate stream : Yes Defeat audio cache : Yes Make use of C2 pointers : No Read offset correction : 6 Overread into Lead-In and Lead-Out : No Fill up missing offset samples with silence : Yes Delete leading and trailing silent blocks



Titolo: Ballads (Deluxe Edition)
Record Label: Impulse! Records
Original Release two sessions in late 1962
Genre: Mainstream/Bop/Hard Bop/Cool
Original 2 CDDA
Format: Flac Single Track
Compress: Exact Audio Copy V0.99 prebeta 3
Size torrent 491 MB
Cover Included
DISC 1
01 Say It (Over and Over Again)
02 You Don't Know What Love Is
03 Too Young to Go Steady
04 All or Nothing at All
05 I Wish I Knew
06 What's New?
07 It's Easy to Remember
08 Nancy (with the Laughing Face)
DISC 2
01 They Say It's Wonderful
02 All or Nothing at All
03 Greensleeves
04 Greensleeves
05 Greensleeves
06 Greensleeves - (45-rpm Take)
07 Greensleeves
08 It's Easy to Remember
09 It's Easy to Remember
10 It's Easy to Remember
11 It's Easy to Remember
12 It's Easy to Remember
13 It's Easy to Remember
14 It's Easy to Remember
John Coltrane saxophones
McCoy Tyner Piano
Jimmy Garrison Bass
Elvin Jones Drums
Exact Audio Copy V0.99 prebeta 3 from 28. July 2007
EAC extraction logfile from 21. January 2009, 23:09
John Coltrane / Ballads (Deluxe Edition) CD2
Used drive : HL-DT-STDVDRAM GSA-E10L Adapter: 2 ID: 0
Read mode : Secure
Utilize accurate stream : Yes
Defeat audio cache : Yes
Make use of C2 pointers : No
Read offset correction : 667
Overread into Lead-In and Lead-Out : No
Fill up missing offset samples with silence : Yes
Delete leading and trailing silent blocks : No
Null samples used in CRC calculations : Yes
Used interface : Installed external ASPI interface
Used output format : User Defined Encoder
Selected bitrate : 768 kBit/s
Quality : High
Add ID3 tag : No
Command line compressor : C:ProgrammiExact Audio CopyFLACFLAC.EXE
Additional command line options : -6 -V -T "ARTIST=%a" -T "TITLE=%t" -T "ALBUM=%g" -T "DATE=%y" -T "TRACKNUMBER=%n" -T "GENRE=%m" -T "COMMENT=%e" %s -o %d
Use compression offset : 0
TOC of the extracted CD
Track | Start | Length | Start sector | End sector
-
1 | 0:00.00 | 3:05.03 | 0 | 13877
2 | 3:05.03 | 3:43.70 | 13878 | 30672
3 | 6:48.73 | 4:29.51 | 30673 | 50898
4 | 11:18.49 | 3:49.06 | 50899 | 68079
5 | 15:07.55 | 3:45.60 | 68080 | 85014
6 | 18:53.40 | 3:40.72 | 85015 | 101586
7 | 22:34.37 | 4:15.49 | 101587 | 120760
8 | 26:50.11 | 4:42.54 | 120761 | 141964
9 | 31:32.65 | 2:47.42 | 141965 | 154531
10 | 34:20.32 | 2:50.46 | 154532 | 167327
11 | 37:11.03 | 2:49.21 | 167328 | 180023
12 | 40:00.24 | 3:47.27 | 180024 | 197075
13 | 43:47.51 | 2:40.27 | 197076 | 209102
14 | 46:28.03 | 2:43.58 | 209103 | 221385
Range status and errors
Selected range
Filename C:ConvertJohn Coltrane - Ballads (Deluxe Edition) CD2.wav
Peak level 97.9 %
Range quality 100.0 %
Test CRC 3F8FA39F
Copy CRC 3F8FA39F
Copy OK
No errors occurred
End of status report

Comments:
Brol
Brol
superb. love this album
Related music:
John Coltrane A Love Supreme JazzPlanet Edition Eac Flac Cue UF download John Coltrane A Love Supreme JazzPlanet Edition Eac Flac Cue UF
Lossless
English
534.1 MB
4.4
/images/5/8/john-coltrane-a-love-supreme-jazzplanet-edition-eac-flac-cue-uf.jpg
Luca Debonaire & DJ Marlon - Easy Come, Easy Go Original Mix download Luca Debonaire & DJ Marlon - Easy Come, Easy Go Original Mix
MP3
English
12.5 MB
4.2
/images/5/2/luca-debonaire-26-dj-marlon-easy-come2c-easy-go-original-mix.jpg
John Coltrane - The Classic Quartet - Complete Impulse! Studio Recordings Box 5 of 8CD download John Coltrane - The Classic Quartet - Complete Impulse! Studio Recordings Box 5 of 8CD
Lossless
English
484.2 MB
4.4
/images/5/5/john-coltrane-the-classic-quartet-complete-impulse21-studio-recordings-box-5-of-8cd.jpg
Donna Summer - I Remember Yesterday 1977 24-192 2013 download Donna Summer - I Remember Yesterday 1977 24-192 2013
Lossless
English
1.3 GB
4.6
/images/5/5/donna-summer-i-remember-yesterday-1977-24-192-2013.jpg
Keith Jarrett Trio - Tribute Eac Flac Cue ECM 1420/21 Jazz Planet download Keith Jarrett Trio - Tribute Eac Flac Cue ECM 1420/21 Jazz Planet
Lossless
English
582.0 MB
4.0
/images/5/5/keith-jarrett-trio-tribute-eac-flac-cue-ecm-14202f21-jazz-planet.jpg
John Coltrane - The Classic Quartet - Complete Impulse! Studio Recordings TNT Jazz Box 3-8CD download John Coltrane - The Classic Quartet - Complete Impulse! Studio Recordings TNT Jazz Box 3-8CD
Lossless
English
463.9 MB
4.5
/images/5/0/john-coltrane-the-classic-quartet-complete-impulse21-studio-recordings-tnt-jazz-box-3-8cd.jpg
John Coltrane A Love Supreme reseed JazzPlanet Edition Eac S Flac Cue download John Coltrane A Love Supreme reseed JazzPlanet Edition Eac S Flac Cue
Lossless
English
532.0 MB
4.3
/images/5/0/john-coltrane-a-love-supreme-reseed-jazzplanet-edition-eac-s-flac-cue.jpg