Files 42316
» » ArabiaNights - Club & Chillout Classics, Flac + Cue.
Language: English
Size: 971.0 MB
Votes: 980
Downloaded: 18
Category: Lossless
Format: MP3, FLAC
4.3

File list

  • Image0023.JPG (487.7 KB)
  • Image0024.JPG (373.5 KB)
the casbah
  • Arabianights (Disk 1).cue (1.8 KB)
  • Arabianights (Disk 1).flac (489.8 MB)
  • Arabianights (Disk 1).log (3.1 KB)
the mailis
  • N. Arabian - Chillout, Room & Lounge.log (3.0 KB)
  • Themajlis - N. Arabian - Chillout, Room & Lounge.cue (1.8 KB)
  • Themajlis - N. Arabian - Chillout, Room & Lounge.flac (480.4 MB)

(Lounge, Chillout, Downtempo) Various Artists - Obsession Lounge Vo. - 2009, FLAC (image+.

(Lounge, Chillout, Downtempo) Various Artists - Obsession Lounge Vo. Downtempo/Ambient) Various - Buddha Chillout (Bar de Lune) (3CD) - 2004, FLAC (image+. September 2009, 16:06 Various Artists, Arabianights (Disk 1) Used drive : ASUS DRW-1814BL Adapter: 0 ID: 0 Read mode : Secure Utilize accurate stream : Yes Defeat audio cache : Yes Make use of C2 pointers : No Read offset correction : 6 Overread into Lead-In and Lead-Out : No Fill up missing offset samples with silence : Yes Delete leading and trailing silent blocks

Autore:aa vv titolo:ArabiaNights - Club & Chillout Classics Anno: 2002 Genere: Electronic, oriental . Harem (The Reg Project). Disc 2 : The Majlis Chillout, Room & Lounge.

Autore:aa vv titolo:ArabiaNights - Club & Chillout Classics Anno: 2002 Genere: Electronic, oriental, chillout Etichetta:fonte cd /originale /cdda Cover : Incluse etichetta :emi. ::- Tracklist<-::: Disc 1 : The Casbah Club, Cabaret & Disco. 1. Walla' Ktir (Salma;Ziad Rahbani) 2. Essal Alaya (Siham Assif) 3. Tamahali (Amal Murkus) 4. Taali Nahjour El Arda (Yuri Mrakadi) 5. Ajmal Ihssas (Elissa) 6. Wine (Assia) 7. Wen Arouh? (Murad Wajdi) 8. Leiley (The 1001 Nights Project;Dania) 9. Kanun (Sound Simulator) 10.

Alexander Sosnin 23 мар 2015 в 22:11. Кому тесно в рамках mp3 делимся музыкой в формате lossless

Alexander Sosnin 23 мар 2015 в 22:11. Кому тесно в рамках mp3 делимся музыкой в формате lossless Нравится Показать список оценивших. Alexander Sosnin 23 мар 2015 в 22:18. 23 - Cafe Americaine - Stories and Flames (22 . .

Название: 50 Lounge & Chillout Classics Исполнитель: VA Год: 2016 Жанр: Electronic, lounge, chillout . Bahia de Roses - Hijo de Pescador 11. Schwarz & Funk - Late Back (Kay Fischer Sax Mix). flac 12. Soni Soner - Wonderland 13. Discey - Naked 14.

Название: 50 Lounge & Chillout Classics Исполнитель: VA Год: 2016 Жанр: Electronic, lounge, chillout, dowmtempo Продолжительность: 04:11:58 Формат/Кодек: FLAC Битрейт аудио: lossless Лицензия Послушать.

Ihab Ezzeldin - Arabian Piano Nights 05:08. Скачать VA - Arabianight 5 (Club And Chillout Classics) 2CD (2010).

Rum Tariq Al Nasser Group - "Ya Bo Rdain". 13. Guy Manoukian - "Yasmina Chill" (mix). 14. Mawel - "Flouka". 15. Fairuz - "Autumn Leaves (Bizaker Bil Kharif)".

Various Artists - Arabianights (Club and Chillout Classics) 2CD - 2002, FLAC (image+. Download via torrent Download via magnet. not logged in. Random Downloads

Various Artists - Arabianights (Club and Chillout Classics) 2CD - 2002, FLAC (image+. Random Downloads. 1 2 3 4 5 6 7 8 9 10 11 12 13 14 15 16 17 18 19 20 21 22 23 24 25 26 27 28 29 30 31 32 33 34 35 36 37 38 39 40 41 42 43 44 45 46 47 48 49 50. Downloads.

Two discs, 'The Casbah - North Arabian Club, Cabaret & Disco' (with 16 tracks) & 'The Majlis - North Arabian Chillout, Room & Lounge' (with 14 tracks), featuring such successful singers as Amir Diab, Cheb Mami & Natacha Atlas, to name but a few. This is Arabia's answer to th. This is Arabia's answer to the Ministry Of Sound, Cream, & Momo compilations.

The Majilis, Arabian Chillout, Room & Lounge. Arabianights - Club & Chillout Classics ‎(2xCD, Comp). Salma & Ziad Rahbani.


:::->Dati Album<-:::
Autore:aa vv
titolo:ArabiaNights - Club & Chillout Classics
Anno: 2002
Genere: Electronic / oriental / chillout
Etichetta:fonte cd /originale /cdda
Cover : Incluse
etichetta :emi
:::->Tracklist<-:::
Disc 1 : The Casbah
Club, Cabaret & Disco

1. Mafina (Katia Harb)
2. Viens Habibi (One World Mix) (Cheb Mami)
3. Foug Al Nakhal (Khaled Issa)
4. Cou Cou (Wide Awake Remix) (Dania)
5. Habibi (Boomtang)
6. Ya Habibi (Myma Maakaron)
7. Chal Chal Alyea Al Rumman (Ilham Al Madfai)
8. Manbai (Natacha Atlas)
9. Habibi (Amr Diab)
10. Al Nagham (Orientronic)
11. Ya Habeeb Il Alb (Spiritual Brothers;Hasna)
12. Drive Me To Beirut (Beirut Biloma)
13. Zenia's Dance (Jad Rahbani)
14. Bahlam Bik (7 Days In Egypt)
15. Kariat Al Fingan (Saed Mrad)
16. Harem (The Reg Project)
Disc 2 : The Majlis
Chillout, Room & Lounge

1. Walla' Ktir (Salma;Ziad Rahbani)
2. Essal Alaya (Siham Assif)
3. Tamahali (Amal Murkus)
4. Taali Nahjour El Arda (Yuri Mrakadi)
5. Ajmal Ihssas (Elissa)
6. Wine (Assia)
7. Wen Arouh? (Murad Wajdi)
8. Leiley (The 1001 Nights Project;Dania)
9. Kanun (Sound Simulator)
10. Sunrise (Lucas Razgallah)
11. Ship Of The Dessert (Out Of Phase)
12. Awakenings (Oryx)
13. Khalouni (Karmix;Claude Challe)
14. Dawn Bayati (The Natacha Atlas Project;Marc Eagleton Project)
:::->Dati Tecnici<-:::
Formato : Flac
Programma usato [Eac]

Code:

Exact Audio Copy V0.99 prebeta 3 from 28. July 2007
EAC extraction logfile from 6. June 2008, 23:48
- / Arabianights (Disk 1)
Used drive : _NEC DVD_RW ND-3550A Adapter: 5 ID: 0
Read mode : Secure
Utilize accurate stream : Yes
Defeat audio cache : Yes
Make use of C2 pointers : No
Read offset correction : 48
Overread into Lead-In and Lead-Out : No
Fill up missing offset samples with silence : Yes
Delete leading and trailing silent blocks : No
Null samples used in CRC calculations : No
Used interface : Installed external ASPI interface
Used output format : User Defined Encoder
Selected bitrate : 768 kBit/s
Quality : High
Add ID3 tag : No
Command line compressor : C:ProgrammiExact Audio CopyFLACFLAC.EXE
Additional command line options : -6 -V -T "ARTIST=%a" -T "TITLE=%t" -T "ALBUM=%g" -T "DATE=%y" -T "TRACKNUMBER=%n" -T "GENRE=%m" -T "COMMENT=%e" %s -o %d
TOC of the extracted CD
Track | Start | Length | Start sector | End sector
-
1 | 0:00.00 | 4:34.08 | 0 | 20557
2 | 4:34.08 | 3:19.23 | 20558 | 35505
3 | 7:53.31 | 4:34.71 | 35506 | 56126
4 | 12:28.27 | 5:28.61 | 56127 | 80787
5 | 17:57.13 | 6:08.44 | 80788 | 108431
6 | 24:05.57 | 4:08.11 | 108432 | 127042
7 | 28:13.68 | 3:07.71 | 127043 | 141138
8 | 31:21.64 | 7:40.58 | 141139 | 175696
9 | 39:02.47 | 6:13.45 | 175697 | 203716
10 | 45:16.17 | 3:27.21 | 203717 | 219262
11 | 48:43.38 | 6:57.21 | 219263 | 250558
12 | 55:40.59 | 2:51.24 | 250559 | 263407
13 | 58:32.08 | 4:04.73 | 263408 | 281780
14 | 62:37.06 | 5:01.51 | 281781 | 304406
15 | 67:38.57 | 4:11.05 | 304407 | 323236
16 | 71:49.62 | 3:33.15 | 323237 | 339226
Range status and errors
Selected range
Filename D:Documents and Settingssalvo.SN116508160310DocumentiArabianights (Disk 1).wav
Peak level 99.8 %
Range quality 99.9 %
Test CRC 7AA51E2C
Copy CRC 7AA51E2C
Copy OK
No errors occurred
AccurateRip summary
Track 1 not present in database
Track 2 not present in database
Track 3 not present in database
Track 4 not present in database
Track 5 not present in database
Track 6 not present in database
Track 7 not present in database
Track 8 not present in database
Track 9 not present in database
Track 10 not present in database
Track 11 not present in database
Track 12 not present in database
Track 13 not present in database
Track 14 not present in database
Track 15 not present in database
Track 16 not present in database
None of the tracks are present in the AccurateRip database
End of status report

Exact Audio Copy V0.99 prebeta 3 from 28. July 2007
EAC extraction logfile from 7. June 2008, 7:05
Themajlis / N. Arabian - Chillout, Room & Lounge
Used drive : _NEC DVD_RW ND-3550A Adapter: 5 ID: 0
Read mode : Secure
Utilize accurate stream : Yes
Defeat audio cache : Yes
Make use of C2 pointers : No
Read offset correction : 48
Overread into Lead-In and Lead-Out : No
Fill up missing offset samples with silence : Yes
Delete leading and trailing silent blocks : No
Null samples used in CRC calculations : No
Used interface : Installed external ASPI interface
Used output format : User Defined Encoder
Selected bitrate : 768 kBit/s
Quality : High
Add ID3 tag : No
Command line compressor : C:ProgrammiExact Audio CopyFLACFLAC.EXE
Additional command line options : -6 -V -T "ARTIST=%a" -T "TITLE=%t" -T "ALBUM=%g" -T "DATE=%y" -T "TRACKNUMBER=%n" -T "GENRE=%m" -T "COMMENT=%e" %s -o %d
TOC of the extracted CD
Track | Start | Length | Start sector | End sector
-
1 | 0:00.00 | 7:23.16 | 0 | 33240
2 | 7:23.16 | 5:02.45 | 33241 | 55935
3 | 12:25.61 | 4:09.14 | 55936 | 74624
4 | 16:35.00 | 5:26.72 | 74625 | 99146
5 | 22:01.72 | 5:48.59 | 99147 | 125305
6 | 27:50.56 | 4:07.03 | 125306 | 143833
7 | 31:57.59 | 4:34.30 | 143834 | 164413
8 | 36:32.14 | 8:00.24 | 164414 | 200437
9 | 44:32.38 | 4:28.11 | 200438 | 220548
10 | 49:00.49 | 4:57.56 | 220549 | 242879
11 | 53:58.30 | 6:18.18 | 242880 | 271247
12 | 60:16.48 | 3:44.46 | 271248 | 288093
13 | 64:01.19 | 3:53.72 | 288094 | 305640
14 | 67:55.16 | 7:42.29 | 305641 | 340319
Range status and errors
Selected range
Filename D:Documents and Settingssalvo.SN116508160310DocumentiThemajlis - N. Arabian - Chillout, Room & Lounge.wav
Peak level 99.8 %
Range quality 100.0 %
Test CRC 276BD9D7
Copy CRC 276BD9D7
Copy OK
No errors occurred
AccurateRip summary
Track 1 not present in database
Track 2 not present in database
Track 3 not present in database
Track 4 not present in database
Track 5 not present in database
Track 6 not present in database
Track 7 not present in database
Track 8 not present in database
Track 9 not present in database
Track 10 not present in database
Track 11 not present in database
Track 12 not present in database
Track 13 not present in database
Track 14 not present in database
None of the tracks are present in the AccurateRip database
End of status report

[::Video::]
R.E.G. Project-Harem
http://www.youtube.com/watch?v=RczZYyz9Go

Related music:
VA – Chillout Lounge House eNJoY-iT 320Kbps 2019 download VA – Chillout Lounge House eNJoY-iT 320Kbps 2019
MP3
English
269.5 MB
4.6
/images/5/4/va-e28093-chillout-lounge-house-enjoy-it-320kbps-2019.jpg
Cafe Chillout Music Club - Sunset Lounge Ibiza Cafe 2014-BG download Cafe Chillout Music Club - Sunset Lounge Ibiza Cafe 2014-BG
MP3
Other
347.3 MB
4.4
/images/5/2/cafe-chillout-music-club-sunset-lounge-ibiza-cafe-2014-bg.jpg
Soul II Soul - Club Classics, Vol 1; 10th Anniversary Edition FLAC DJ download Soul II Soul - Club Classics, Vol 1; 10th Anniversary Edition FLAC DJ
Lossless
English
450.1 MB
4.5
/images/5/4/soul-ii-soul-club-classics2c-vol-13b-10th-anniversary-edition-flac-dj.jpg
Royal Philharmonic Orchestra - Hooked On Classics by Kurrus Louis Clark download Royal Philharmonic Orchestra - Hooked On Classics by Kurrus Louis Clark
Lossless
English
955.2 MB
4.0
/images/5/4/royal-philharmonic-orchestra-hooked-on-classics-by-kurrus-louis-clark.jpg
50 Cent - Discography, Lossy Mp3 192 kbps download 50 Cent - Discography, Lossy Mp3 192 kbps
MP3
English
983.7 MB
4.3
/images/5/1/50-cent-discography2c-lossy-mp3-192-kbps.jpg
Coldharbour Chill 320kbps 2017 Mix + Unmix download Coldharbour Chill 320kbps 2017 Mix + Unmix
MP3
English
571.0 MB
4.4
/images/5/3/coldharbour-chill-320kbps-2017-mix-2b-unmix-.jpg
Dance Classics - Collection / Dance / 1988-2013 / FLAC / Lossless 85 Albums download Dance Classics - Collection / Dance / 1988-2013 / FLAC / Lossless 85 Albums
Lossless
English
71.3 GB
4.0
/images/5/4/dance-classics-collection-2f-dance-2f-1988-2013-2f-flac-2f-lossless-85-albums.jpg
Soul II Soul - Club Classics Vol One @flac 1989 download Soul II Soul - Club Classics Vol One @flac 1989
Lossless
English
321.6 MB
4.2
/images/5/5/soul-ii-soul-club-classics-vol-one-40flac-1989.jpg
New DJ Promo, DMC MonsterJam Club Classics 4 @320, from BJtheDJ download New DJ Promo, DMC MonsterJam Club Classics 4 @320, from BJtheDJ
MP3
English
173.0 MB
4.9
/images/5/6/new-dj-promo2c-dmc-monsterjam-club-classics-4-403202c-from-bjthedj.jpg
A Flock of Seagulls 1995 20 Classics of The 80's download A Flock of Seagulls 1995 20 Classics of The 80's
Lossless
English
482.7 MB
4.6
/images/5/5/a-flock-of-seagulls-1995-20-classics-of-the-8027s.jpg