Files 42316
» » Bad Wolves - N A T I O N 24bit Hi-Res 2019
Language: English
Size: 546.7 MB
Votes: 676
Downloaded: 52
Category: Lossless
Format: MP3, FLAC
4.8

File list

Bad Wolves - N.A.T.I.O.N. (2019) [24bit Hi-Res]
  • 01 - I'll Be There.flac (51.0 MB)
  • 02 - No Messiah.flac (55.7 MB)
  • 03 - Learn To Walk Again.flac (36.5 MB)
  • 04 - Killing Me Slowly.flac (51.2 MB)
  • 05 - Better Off This Way.flac (41.2 MB)
  • 06 - Foe Or Friend.flac (43.5 MB)
  • 07 - Sober.flac (41.7 MB)
  • 08 - Back In The Days.flac (47.6 MB)
  • 09 - The Consumerist.flac (45.5 MB)
  • 10 - Heaven So Heartless.flac (44.3 MB)
  • 11 - Crying Game.flac (41.1 MB)
  • 12 - LA Song.flac (45.3 MB)
  • art.jpg (1.4 MB)
  • cover.jpg (669.5 KB)
  • dr14.txt (1.4 KB)

The first song of bad wolves that I listen and enjoy was the cover of zombie song by the cranberries. Preferred Audio Format: FLAC/24bit.

The first song of bad wolves that I listen and enjoy was the cover of zombie song by the cranberries. Posted October 25. kFace that's where people like myself unfamiliar with them would recognise their band name.

Container: flac (tracks) Quality: Hi-Fi, lossless audio Sample Rate: 44100 kHz, 16 bit, Stereo Source: Digital download Album Artist: Bad Wolves Album Name: . You can download Bad Wolves - .

Alt Metal, Nu Metal Modern Metal. Скачать альбом Bad Wolves - . Lossless, 2019) бесплатно и без регистрации через торрент в Lossless. ИСПОЛНИТЕЛЬ: Bad Wolves. Альбом, название: . ГОД, ДАТА ВЫХОДА: October 25, 2019. СТРАНА: USA. ТОЧНЫЙ ЖАНР(Ы): Alternative Metal, Modern Metal. Найти другие альбомы и музыку Bad Wolves.

RELEASE YEAR, DATE: October 25, 2019. COUNTRY: United States. FILE FORMAT: FLAC, (tracks) 24 bits, 44,1 KHz. QUALITY: Lossless. Bad Wolves - Killing Me Slowly (Single) (2019). STYLE: Alternative Metal, Modern Metal. LABEL: Eleven Seven Music. 27 august 2019 Alt Metal, Nu Metal Modern Metal.

1 month 2 weeks ago. Recommendations. Wolves At The Gate - A Voice in the Violence (2019). Genre: Post-Hardcore Country: USA Quality: MP3, 320 kbps. Wolves At The Gate - The Cure (2019). Genre: Alternative Metal Country: USA Quality: MP3, 320 kbps. Project 86 - Sheep Among Wolves (2017). Genre: Punk Rock Country: USA Quality: MP3, 320 kbps. Rise Against - Wolves (2017).

Let’s just jump in. Background & history. I know that some people might bring up the False flags, volume 1 & 2 EP, but I don’t count EP’s. It seems like Disobey was only released yesterday

Cigarettes After Sex - Cry.

Released October 25, 2019. 1. I'll Be There Lyrics. 2. No Messiah Lyrics.

Fighting for a free internet since 2K16!


Quality-Lossless
Release-2019
Duration-00:42:40
File Size-573 MB
Genre-Metal
Cover Size-1400px
Analyzed: N.A.T.I.O.N. / Artist: Bad Wolves
DR Peak RMS Duration Title [codec]
DR5 -0.00 dB -6.88 dB 4:01 01 - I'll Be There [flac]
DR5 -0.00 dB -6.92 dB 4:20 02 - No Messiah [flac]
DR5 -0.00 dB -6.26 dB 2:46 03 - Learn To Walk Again [flac]
DR5 -0.00 dB -6.44 dB 3:56 04 - Killing Me Slowly [flac]
DR6 -0.00 dB -8.19 dB 3:22 05 - Better Off This Way [flac]
DR5 -0.00 dB -6.89 dB 3:25 06 - Foe Or Friend [flac]
DR6 -0.00 dB -8.98 dB 3:14 07 - Sober [flac]
DR5 -0.00 dB -6.62 dB 3:43 08 - Back In The Days [flac]
DR4 -0.00 dB -5.08 dB 3:29 09 - The Consumerist [flac]
DR5 -0.00 dB -7.36 dB 3:35 10 - Heaven So Heartless [flac]
DR5 -0.00 dB -6.43 dB 3:10 11 - Crying Game [flac]
DR5 -0.00 dB -7.08 dB 3:33 12 - LA Song [flac]
Number of files: 12
Official DR value: DR5
Sampling rate: 44100 Hz
Average bitrate: 1780kbs
Bits per sample: 24 bit

Related music:
Erasure - Wild! 88.2-24bit Edition 1989 Remastered download Erasure - Wild! 88.2-24bit Edition 1989 Remastered
Lossless
English
2.1 GB
4.3
/images/5/0/erasure-wild21-882-24bit-edition-1989-remastered.jpg
Amanda Martinez - LIBRE 24bit Hi-Res 2019 download Amanda Martinez - LIBRE 24bit Hi-Res 2019
Lossless
English
527.0 MB
4.3
/images/5/7/amanda-martinez-libre-24bit-hi-res-2019.jpg
Bishop Briggs - CHAMPION 24bit Hi-Res 2019 download Bishop Briggs - CHAMPION 24bit Hi-Res 2019
Lossless
English
358.0 MB
4.1
/images/5/7/bishop-briggs-champion-24bit-hi-res-2019.jpg
Dominic Sen - Visitor Flac 2019 download Dominic Sen - Visitor Flac 2019
Lossless
English
265.2 MB
4.0
/images/5/5/dominic-sen-visitor-flac-2019.jpg
Electric Guest - KIN Flac 2019 download Electric Guest - KIN Flac 2019
Lossless
English
233.2 MB
4.8
/images/5/2/electric-guest-kin-flac-2019.jpg
Bastille - Doom Days 24Bit 96000Hz 2019 download Bastille - Doom Days 24Bit 96000Hz 2019
Lossless
English
828.6 MB
4.0
/images/5/6/bastille-doom-days-24bit-96000hz-2019.jpg
Dr Deep House - A Solid State 24bit Hi-Res 2019 download Dr Deep House - A Solid State 24bit Hi-Res 2019
Lossless
English
557.6 MB
4.0
/images/5/2/dr-deep-house-a-solid-state-24bit-hi-res-2019.jpg
banks - III 24bit Hi-Res 2019 download banks - III 24bit Hi-Res 2019
Lossless
English
568.1 MB
4.1
/images/5/1/banks-iii-24bit-hi-res-2019.jpg
Bad Wolves - N A T I O N 2019 320 KBPS download Bad Wolves - N A T I O N 2019 320 KBPS
MP3
English
108.4 MB
4.3
/images/5/6/bad-wolves-n-a-t-i-o-n-2019-320-kbps.jpg