Files 42316
» » Asian Dub Foundation - Community Music LOSSLESS/FLAC/LOG/CUE h33t FlacMonkey 2000
Language: English
Size: 500.6 MB
Votes: 466
Downloaded: 16
Category: Lossless
Format: MP3, FLAC
4.0

File list

  • 01 - Real Great Britain.flac (23.3 MB)
  • 02 - Memory War.flac (25.6 MB)
  • 03 - Officer XX.flac (23.3 MB)
  • 04 - New Way New Life.flac (34.7 MB)
  • 05 - Riddim I Like.flac (29.9 MB)
  • 06 - Collective Mode.flac (28.7 MB)
  • 07 - Crash.flac (36.7 MB)
  • 08 - Colour Line.flac (25.3 MB)
  • 09 - Taa Deem.flac (33.1 MB)
  • 10 - Judgement.flac (26.6 MB)
  • 11 - Truth Hides.flac (55.9 MB)
  • 12 - Rebel Warrior.flac (39.2 MB)
  • 13 - Commited To Life.flac (31.4 MB)
  • 14 - Scaling New Heights.flac (60.7 MB)
  • 15 - Collective Mode Featuring Leeroy (From Saian Supa Crew).flac (26.1 MB)
  • Asian Dub Foundation - Community Music - Info.txt (5.4 KB)
  • Asian Dub Foundation - Community Music.log (5.7 KB)
  • Asian Dub Foundation - Community Music.log~ (5.9 KB)
  • Asian Dub Foundation - Community Music.m3u (0.4 KB)
  • Community Music.cue (2.3 KB)
  • Folder.jpg (34.7 KB)

December 2008, 11:39. Asian Dub Foundation, Community Music Null samples used in CRC calculations : Yes. Used interface : Native Win32 interface for Win NT & 2000. Gap handling : Appended to previous track.

December 2008, 11:39. Asian Dub Foundation, Community Music. Used drive : PHILIPS DVD+-RW SDVD8441 Adapter: 1 ID: 1. Read mode : Secure. Null samples used in CRC calculations : Yes. Used output format : User Defined Encoder.

Music in lossless format - is an opportunity to listen to music with new sensations of the original sound in uncompressed and lossless quality.

2000 Asian Dub Foundation Community Music 10 скачать mp3 в хорошем качестве, либо слушайте песню 2000 Asian Dub Foundation Community Music 10 - The Judgement, 2000 Asian Dub Foundation Community Music 12 - Rebel Warrior, 2000 Asian Dub Foundation Co. .

RockLabel: Audio Archives, PolydorDuration: 02:30:17File Format: FLAC, (image+. cue)Quality: Lossless.

Artist: FantasyAlbum, Title: Дискография - 2 альбома, 3CD (Studio albums) Release year, Date: 1973-1999Country: Kent, UKStyle: Prog Rock, Psyhedelic Rock, Art RockLabel: Audio Archives, PolydorDuration: 02:30:17File Format: FLAC, (image+. Fantasy - одна из самых недооценённых прогрессивных групп начала 70-х. Artist: Power TheoryAlbum, Title: Force of Will Release year, Date: December 6, 2019Country: United StatesStyle: Heavy Power MetalLabel: Pure Steel RecordsDuration: 00:56:50File Format: FLAC, (tracks)Quality: Lossless.

Benelux release} Music. You cannot download any of those files from here.

to Asian Dub Foundation - Community Music (2000) {France & Benelux release} Music. am Asian Dub Foundation - Community Music (2000) {France and Benelux release} Music.

s on December 1, 2019. Format: 11 x File, Album, MP3/320 kbps, FLAC, ALAC, AIFF, WAVE Released: 6 Oct 2019 Style: Dub Techno, Ambient. Originally posted by bassandspace. PortedMoss : Years Ago. s on November 16, 2019.

Catalog 7243 8 49967 2 7 Дата выпуска: 2000 Жанр: Rap, Breakbeat, dub, dancehall, ragga, electronic Формат: FLAC (tracks+cue) Битрейт: lossless Продолжительность: 01:13:47 Источник: H33T, релизер: FlacMonkey Треклист: 01. Real Great Britain 0. AUDIO TITLE "Memory War" PERFORMER "Asian Dub Foundation" INDEX 01 00:00:00 FILE "03 - Officer X. av" WAVE TRACK 03 AUDIO TITLE "Officer XX" PERFORMER "Asian Dub Foundation" INDEX 01 00:00:00 FILE "04 - New Way New Life. wav" WAVE TRACK 04 AUDIO TITLE "New Way New Life" PERFORMER "Asian Dub Foundation" INDEX 01 00:00:00 FILE "05 - Riddim I.

Asian Dub Foundation - Community Music [FLAC]


Tracklisting:

01. [00:03:13] Asian Dub Foundation - Real Great Britain
02. [00:03:36] Asian Dub Foundation - Memory War
03. [00:03:20] Asian Dub Foundation - Officer XX
04. [00:05:01] Asian Dub Foundation - New Way New Life
05. [00:04:28] Asian Dub Foundation - Riddim I Like
06. [00:03:52] Asian Dub Foundation - Collective Mode
07. [00:05:25] Asian Dub Foundation - Crash
08. [00:04:02] Asian Dub Foundation - Colour Line
09. [00:04:47] Asian Dub Foundation - Taa Deem
10. [00:04:14] Asian Dub Foundation - Judgement
11. [00:08:22] Asian Dub Foundation - Truth Hides
12. [00:06:23] Asian Dub Foundation - Rebel Warrior
13. [00:04:44] Asian Dub Foundation - Commited To Life
14. [00:08:27] Asian Dub Foundation - Scaling New Heights
15. [00:03:52] Asian Dub Foundation - Collective Mode Featuring Leeroy (From Saian Supa Crew)
Playing Time: 01:13:48
Total Size: 500,50 MB
Label: Labels
Catalog#: 7243 8 49967 2 7
Format: CD, Album
Country: France
Released: Oct 2000
Genre: Electronic, Hip Hop
Style: Dub, Jungle
Notes: France & Benelux release with another track 15.
Included.............: M3U, LOG, CUE, info.txt, folder.jpg

AMG review:

Quote:


Anarchist Emma Goldman said, "if I can't dance, it's not my revolution." This sentiment lies at the core of Community Music. At the intersection of dub, punk, funk, reggae, dancehall, Bollywood, and political polemic you'll find Asian Dub Foundation. And you most certainly can dance to it. Community Music is thick with speaking Truth to Power while ADF storms the Bastille with an awe-inspiring musical ferocity and their crystalline political vision. The first half of Community Music is fierce and unrelenting in its musical influences, construction, and politics. From the thunderous opening cut, "Real Great Britain," you're left in no uncertain terms where the politics of ADF lie or how passionately they hold them. Sharp observations on the current state of capitalism, politics, and race in Britain form the focal point of the CD. The blistering exposé of police incompetence on "Officer XX" refers to the botched Stephen Lawrence murder inquiry, while set to a simple guitar and drum pattern. The stirring dub-electronic account of how second-generation immigrants to Britain have emerged both influenced and in turn influencing Cool Britannia, on "New Way, New Life," makes it one of their strongest songs to date. While on the opposite side of the same coin, "Memory War" illustrates that the immigrant communities are not a new form of British citizen, and their contributions must be included in the official histories of the island. The second half slows the pace gradually, stretching the musical genres further and encouraging dancing. "Crash" is a didactic dub reggae dance groove critique of global capitalism that blazes out in a frenzy of jungle drums and punk guitar. As an ode to Nusrat Fateh Ali Khan, a seminal figure in the emergence of "Eastern" music to Western ears and one given a much-deserved shout-out by ADF, the piece "Taa Deem" has appeared in a slightly different version on Star Rise, a remix collection of Nusrat Fateh Ali Khan's material by a who's who of contemporary British Asian musicians. The shuffling dance grooves and rap of "Rebel Warrior" call to mind the Stereo MC's. A further illustration of their politics, if needed, by Assata Shakur, who is invited to give a personal account of her revolutionary beliefs, to "struggle because committed to life." Community Music ends with an expansive electronic dub coda. As "England's new voice," calling for intellectual self-defense and self- awareness ADF represents the potential future. Community Music should be in every thinking person's collection, directly between the Clash and Public Enemy.

EAC Extraction log:

Quote:


Exact Audio Copy V0.99 prebeta 4 from 23. January 2008
EAC extraction logfile from 23. December 2008, 11:39
Asian Dub Foundation / Community Music
Used drive : PHILIPS DVD+-RW SDVD8441 Adapter: 1 ID: 1
Read mode : Secure
Utilize accurate stream : Yes
Defeat audio cache : Yes
Make use of C2 pointers : No
Read offset correction : 1292
Overread into Lead-In and Lead-Out : No
Fill up missing offset samples with silence : Yes
Delete leading and trailing silent blocks : No
Null samples used in CRC calculations : Yes
Used interface : Native Win32 interface for Win NT & 2000
Gap handling : Appended to previous track
Used output format : User Defined Encoder
Selected bitrate : 128 kBit/s
Quality : High
Add ID3 tag : No
Command line compressor : C:Program FilesFLACflac.exe
Additional command line options : -8 -V -T "ARTIST=%a" -T "TITLE=%t" -T "ALBUM=%g" -T "DATE=%y" -T "TRACKNUMBER=%n" -T "GENRE=%m" -T "COMMENT=EAC 0.99pb4 FLAC 1.2.1b -8" %s
TOC of the extracted CD
Track | Start | Length | Start sector | End sector
-
1 | 0:00.32 | 3:12.48 | 32 | 14479
2 | 3:13.05 | 3:36.12 | 14480 | 30691
3 | 6:49.17 | 3:20.33 | 30692 | 45724
4 | 10:09.50 | 5:01.32 | 45725 | 68331
5 | 15:11.07 | 4:27.70 | 68332 | 88426
6 | 19:39.02 | 3:52.20 | 88427 | 105846
7 | 23:31.22 | 5:24.73 | 105847 | 130219
8 | 28:56.20 | 4:02.00 | 130220 | 148369
9 | 32:58.20 | 4:46.57 | 148370 | 169876
10 | 37:45.02 | 4:14.23 | 169877 | 188949
11 | 41:59.25 | 8:21.42 | 188950 | 226566
12 | 50:20.67 | 6:23.35 | 226567 | 255326
13 | 56:44.27 | 4:44.18 | 255327 | 276644
14 | 61:28.45 | 8:27.20 | 276645 | 314689
15 | 69:55.65 | 3:52.20 | 314690 | 332109
Track 1
Filename C:DAE1 - Real Great Britain.wav
Pre-gap length 0:00:02.42
Peak level 100.0 %
Track quality 100.0 %
Test CRC 7C0B20F7
Copy CRC 7C0B20F7
Track not present in AccurateRip database
Copy OK
Track 2
Filename C:DAE2 - Memory War.wav
Peak level 100.0 %
Track quality 99.9 %
Test CRC A25F5CC3
Copy CRC A25F5CC3
Track not present in AccurateRip database
Copy OK
Track 3
Filename C:DAE3 - Officer XX.wav
Peak level 100.0 %
Track quality 100.0 %
Test CRC 5AA7C53F
Copy CRC 5AA7C53F
Track not present in AccurateRip database
Copy OK
Track 4
Filename C:DAE4 - New Way New Life.wav
Peak level 100.0 %
Track quality 100.0 %
Test CRC 9F751244
Copy CRC 9F751244
Track not present in AccurateRip database
Copy OK
Track 5
Filename C:DAE5 - Riddim I Like.wav
Peak level 99.8 %
Track quality 100.0 %
Test CRC 0237018D
Copy CRC 0237018D
Track not present in AccurateRip database
Copy OK
Track 6
Filename C:DAE6 - Collective Mode.wav
Peak level 100.0 %
Track quality 100.0 %
Test CRC 3FF59907
Copy CRC 3FF59907
Track not present in AccurateRip database
Copy OK
Track 7
Filename C:DAE7 - Crash.wav
Peak level 100.0 %
Track quality 100.0 %
Test CRC 4895D09C
Copy CRC 4895D09C
Track not present in AccurateRip database
Copy OK
Track 8
Filename C:DAE8 - Colour Line.wav
Peak level 100.0 %
Track quality 100.0 %
Test CRC 2B48FFA3
Copy CRC 2B48FFA3
Track not present in AccurateRip database
Copy OK
Track 9
Filename C:DAE9 - Taa Deem.wav
Peak level 100.0 %
Track quality 100.0 %
Test CRC 9CC6F90C
Copy CRC 9CC6F90C
Track not present in AccurateRip database
Copy OK
Track 10
Filename C:DAE10 - Judgement.wav
Peak level 99.5 %
Track quality 100.0 %
Test CRC 538EB03F
Copy CRC 538EB03F
Track not present in AccurateRip database
Copy OK
Track 11
Filename C:DAE11 - Truth Hides.wav
Peak level 100.0 %
Track quality 100.0 %
Test CRC 614B0FD7
Copy CRC 614B0FD7
Track not present in AccurateRip database
Copy OK
Track 12
Filename C:DAE12 - Rebel Warrior.wav
Peak level 99.8 %
Track quality 100.0 %
Test CRC D2702304
Copy CRC D2702304
Track not present in AccurateRip database
Copy OK
Track 13
Filename C:DAE13 - Commited To Life.wav
Peak level 99.5 %
Track quality 99.9 %
Test CRC 9B2AC1F9
Copy CRC 9B2AC1F9
Track not present in AccurateRip database
Copy OK
Track 14
Filename C:DAE14 - Scaling New Heights.wav
Peak level 100.0 %
Track quality 100.0 %
Test CRC 15D0371D
Copy CRC 15D0371D
Track not present in AccurateRip database
Copy OK
Track 15
Filename C:DAE15 - Collective Mode Featuring Leeroy (From Saian Supa Crew).wav
Pre-gap length 0:00:01.90
Peak level 97.2 %
Track quality 100.0 %
Test CRC 77DD571B
Copy CRC 77DD571B
Track not present in AccurateRip database
Copy OK
None of the tracks are present in the AccurateRip database
No errors occurred
End of status report

:) Enjoy :)

Related music:
Dubcreator - Adp Dub Sessions 1994-1996 download Dubcreator - Adp Dub Sessions 1994-1996
MP3
Other
37.2 MB
4.0
/images/5/6/dubcreator-adp-dub-sessions-1994-1996.jpg
Asian Dub Foundation - A History Of Now @flac 2011 download Asian Dub Foundation - A History Of Now @flac 2011
Lossless
English
411.9 MB
4.3
/images/5/4/asian-dub-foundation-a-history-of-now-40flac-2011.jpg
Jay Sean Feat Karl Wolf Radhika Vekaria - Yalla Asia720p Qatar Asian Cup 2011 HD RaHuL tHe HuNk download Jay Sean Feat Karl Wolf Radhika Vekaria - Yalla Asia720p Qatar Asian Cup 2011 HD RaHuL tHe HuNk
Video
English
33.6 MB
4.9
/images/5/1/jay-sean-feat-karl-wolf-radhika-vekaria-yalla-asia720p-qatar-asian-cup-2011-hd-rahul-the-hunk.jpg
NCT DREAM - Fireflies 2019-Single THE OFFICIAL SONG OF THE WORLD SCOUT FOUNDATION download NCT DREAM - Fireflies 2019-Single THE OFFICIAL SONG OF THE WORLD SCOUT FOUNDATION
Single
English
7.8 MB
4.6
/images/5/9/nct-dream-fireflies-2019-single-the-official-song-of-the-world-scout-foundation.jpg
Asian Dub Foundation - Punkara @flac 2008 download Asian Dub Foundation - Punkara @flac 2008
Lossless
English
644.9 MB
4.1
/images/5/6/asian-dub-foundation-punkara-40flac-2008.jpg
Asim Azhar - Top Hits 320 KBPS 2019 download Asim Azhar - Top Hits 320 KBPS 2019
MP3
Hindi
124.3 MB
4.1
/images/5/0/asim-azhar-top-hits-320-kbps-2019-.jpg
Rittz - Put a Crown on It 320 KBPS 2019 download Rittz - Put a Crown on It 320 KBPS 2019
MP3
English
101.1 MB
4.2
/images/5/1/rittz-put-a-crown-on-it-320-kbps-2019.jpg
Asian Dub Foundation - Enemy Of The Enemy 320Kbps MP3 2003 download Asian Dub Foundation - Enemy Of The Enemy 320Kbps MP3 2003
MP3
English
120.5 MB
4.3
/images/5/8/asian-dub-foundation-enemy-of-the-enemy-320kbps-mp3-2003.jpg
Shubham Chaudhary - The Foundation 2015 download Shubham Chaudhary - The Foundation 2015
Album
English
118.9 MB
4.5
/images/5/7/shubham-chaudhary-the-foundation-2015.jpg