Files 42316
» » Meat Loaf - The Very Best Of Meat Loaf vtwin88cube FLAC 1998
Language: English
Size: 795.8 MB
Votes: 968
Downloaded: 26
Category: Lossless
Format: MP3, FLAC
4.5

File list

Meat Loaf - The Very Best Of Meat Loaf (1998) [FLAC] vtwin88cube CD1
  • 00.- The Very Best Of Meat Loaf CD1.m3u (0.4 KB)
  • 01.-Home By Now No Matter What.flac (50.9 MB)
  • 02.-Life Is A Lemon And I Want My Money Back (Remix).flac (61.7 MB)
  • 03.-You Took The Words Right Out Of My Mouth (Hot Summer Night).flac (34.9 MB)
  • 04.-Two Out Of Three Ain't Bad.flac (37.3 MB)
  • 05.-Modern Girl.flac (31.1 MB)
  • 06.-Rock & Roll Dreams Come Through.flac (42.3 MB)
  • 07.-Is Nothing Sacred.flac (42.1 MB)
  • 08.-Paradise By The Dashboard Light.flac (59.7 MB)
  • 09.-Heaven Can Wait.flac (29.7 MB)
  • auCDtect.txt (4.3 KB)
  • DR8.txt (1.4 KB)
CD2
  • 00.-The Very Best Of Meat Loaf CD2.m3u (0.4 KB)
  • 01.-I'd Do Anything For Love (But I Won't Do That).flac (79.6 MB)
  • 02.-A Kiss Is A Terrible Thing To Waste.flac (51.6 MB)
  • 03.-I'd Lie For You (And That's The Truth).flac (46.3 MB)
  • 04.-Not A Dry Eye In The House.flac (40.5 MB)
  • 05.-Nocturnal Pleasure.flac (3.6 MB)
  • 06.-Dead Ringer For Love.flac (32.3 MB)
  • 07.-Midnight At The Lost And Found.flac (26.2 MB)
  • 08.-Objects In The Rear View Mirror May Appear Closer Than They Are.flac (58.1 MB)
  • 09.-Bat Out Of Hell.flac (67.4 MB)
  • auCDtect.txt (4.3 KB)
  • DR9.txt (1.4 KB)
  • folder.jpg (429.2 KB)
  • Life Is A Lemon And I Want My Money Back (Remix). 6. 9 MB. 0. You Took The Words Right Out Of My Mouth (Hot Summer Night). 3. 1 MB. Two Out Of Three Ain't Ba. lac.

    Life Is A Lemon And I Want My Money Back (Remix). Modern Girl. 5 MB. Rock & Roll Dreams Come Through. 4. MB. Is Nothing Sacred.

    Number of tracks: 18 Official DR value: DR9. Samplerate: 44100 Hz Channels: 2 Bits per sample: 16 Bitrate: 849 kbps Codec: FLAC. Tracklist: CD1. Home By Now, No Matter What 0. Life Is A Lemon And I Want My Money Back (Remix) 0. You Took The Words Right Out Of My Mouth (Hot Summer Night) 0. Two Out Of Three Ain't Bad 0. Modern Girl 0. Rock & Roll Dreams Come Through 07. -Is Nothing Sacred 0. Paradise By The Dashboard Light 0. Heaven Can Wait.

    PERFORMER "Meat Loaf" REM COMPOSER "" INDEX 01 00:00:00 TRACK 02 AUDIO TITLE "You Took The Words Right Out Of My. .Which means, of course, that the 20-track collection is, indeed, the "very best" of Meat Loaf.

    PERFORMER "Meat Loaf" REM COMPOSER "" INDEX 01 00:00:00 TRACK 02 AUDIO TITLE "You Took The Words Right Out Of My Mouth (Hot Summer Night)" PERFORMER "Meat Loaf" REM COMPOSER "" INDEX 01 11:58:68 TRACK 03 AUDIO TITLE "Heaven Can Wait" PERFORMER "Meat Loaf" REM COMPOSER "" INDEX 01 17:02:08 TRACK 04 AUDIO TITLE "Not A Dry Ey.

    30 Very Best of Deep Purple 2CD(1998) DICKTHESPIC. 0 0 88. 6 MB 0. The Very Best of Meat Loaf ResourceRG.

    info est-Of-Meat-Loaf-(1998)-vtwin88cube Music. flac42 MB. Paradise By The Dashboard Light. flac60 MB. to Me t Lo f - The Very Best Of Me t Lo f (1998) vtwin88cube Music. co Meat Loaf - The Very Best Of Meat Loaf (1998) vtwin88cube Music. com Meat Loaf: The Very Best Of Meat Loaf (1998) Vtwin88cube Music. txt4 KB. DR. xt1 KB. CD2. The Very Best Of Meat Loaf CD. 3u390 B. I'd Do Anything For Love (But I Won't Do That).

    Home By NowNo Matter What. flac 51 MB. ife Is A Lemon And I Want My Money Back (Remix). flac 62 MB. ou Took The Words Right Out Of My Mouth (Hot Summer Night). flac 35 MB. wo Out Of Three Ain't Ba. lac 37 MB. odern Girl. flac 31 MB. ock & Roll Dreams Come Through. flac 42 MB. s Nothing Sacred. 'd Do Anything For Love (But I Won't Do That). flac 80 MB. Kiss Is A Terrible Thing To Waste. flac 52 MB. 'd Lie For You (And That's The Truth). flac 46 MB. ot A Dry Eye In The House. flac 40 MB. octurnal Pleasure. flac 4 MB. ead Ringer For Love.

    Performer: Meat Loaf Album: The Best Of Meat Loaf Label: EMI Records

    Performer: Meat Loaf Album: The Best Of Meat Loaf Label: EMI Records. VA - Dream Dance Vo. 0 (1998).

    Hard Rock) Meat Loaf - The Very Best of Meat Loaf (2CD) - 1998 (Virgin EU), FLAC (image+. Meat Loaf - The Collection (1999) vtwin88cube. org 837 MB 2019-06-06 6 0. (Hard Rock) Meat Loaf - Bat Out of Hell - 1977 (2016), FLAC (tracks+. org 285 MB 2017-09-24 5 0. (Classic Rock) Meat Loaf - Bat Out Of Hell II: Back Into Hell - 1993, FLAC (image+. org 566 MB 2013-01-30 0 3. Timeshift S09E08 Bread A Loaf Affair 480p x264 mSD.

    Meatloaf
    The Very Best Of Meat Loaf
    Number of tracks: 18
    Official DR value: DR9
    Samplerate: 44100 Hz
    Channels: 2
    Bits per sample: 16
    Bitrate: 849 kbps
    Codec: FLAC
    Tracklist:
    CD1
    01.-Home By Now / No Matter What
    02.-Life Is A Lemon And I Want My Money Back (Remix)
    03.-You Took The Words Right Out Of My Mouth (Hot Summer Night)
    04.-Two Out Of Three Ain't Bad
    05.-Modern Girl
    06.-Rock & Roll Dreams Come Through
    07.-Is Nothing Sacred
    08.-Paradise By The Dashboard Light
    09.-Heaven Can Wait
    CD2
    01.-I'd Do Anything For Love (But I Won't Do That)
    02.-A Kiss Is A Terrible Thing To Waste
    03.-I'd Lie For You (And That's The Truth)
    04.-Not A Dry Eye In The House
    05.-Nocturnal Pleasure
    06.-Dead Ringer For Love
    07.-Midnight At The Lost And Found
    08.-Objects In The Rear View Mirror May Appear Closer Than They Are
    09.-Bat Out Of Hell
    Just say NO to DMCA takedown requests...
    Thanks 4 Seeding!
    Cheers!

Related music:
Meatloaf Bat Out Of Hell 1977 download Meatloaf Bat Out Of Hell 1977
Album
English
84.5 MB
4.9
/images/5/5/meatloaf-bat-out-of-hell-1977-.jpg
Meat Loaf - Bat Out of Hell Re-Vamped FLAC Soup 1991 download Meat Loaf - Bat Out of Hell Re-Vamped FLAC Soup 1991
Lossless
English
313.6 MB
4.9
/images/5/4/meat-loaf-bat-out-of-hell-re-vamped-flac-soup-1991.jpg
Meatloaf Bat Out Of Hell 1977 download Meatloaf Bat Out Of Hell 1977
Album
English
84.5 MB
4.9
/images/5/6/meatloaf-bat-out-of-hell-1977.jpg
Meat Loaf - Bat out of Hell H 264 from DVD music and documentary discussion download Meat Loaf - Bat out of Hell H 264 from DVD music and documentary discussion
Video
English
830.9 MB
4.8
/images/5/0/meat-loaf-bat-out-of-hell-h-264-from-dvd-music-and-documentary-discussion-.jpg
Meat Loaf - The Very Best Of Meat Loaf 1998 download Meat Loaf - The Very Best Of Meat Loaf 1998
Album
English
164.5 MB
4.4
/images/5/0/meat-loaf-the-very-best-of-meat-loaf-1998-.jpg
Meat Loaf - The Essential 2011 - Kitlope FLAC h33t Greatest Hits download Meat Loaf - The Essential 2011 - Kitlope FLAC h33t Greatest Hits
Lossless
English
781.4 MB
4.6
/images/5/2/meat-loaf-the-essential-2011-kitlope-flac-h33t-greatest-hits.jpg