Files 42316
» » Iggy Azalea - In My Defense Flac 2019
Language: English
Size: 212.0 MB
Votes: 746
Downloaded: 159
Category: Lossless
Format: MP3, FLAC
4.3

File list

Iggy Azalea - In My Defense (2019) Flac
  • 01 - Thanks I Get.flac (16.2 MB)
  • 02 - Clap Back.flac (19.5 MB)
  • 03 - Sally Walker.flac (17.8 MB)
  • 04 - Hoemita.flac (16.0 MB)
  • 05 - Started.flac (20.2 MB)
  • 06 - Spend It.flac (21.5 MB)
  • 07 - Fuck It Up.flac (16.6 MB)
  • 08 - Big Bag.flac (14.8 MB)
  • 09 - Comme Des Garcons.flac (22.9 MB)
  • 10 - Freak Of The Week.flac (17.1 MB)
  • 11 - Just Wanna.flac (17.8 MB)
  • 12 - Pussy Pop.flac (11.5 MB)
  • [TGx]Downloaded from torrentgalaxy.org .txt (0.6 KB)
  • cover.jpg (238.1 KB)
  • dr14.txt (1.4 KB)
  • Torrent Downloaded from Glodls.to.txt (0.2 KB)
  • Torrent downloaded from limetorrents.cc.txt (0.1 KB)
  • Torrent Downloaded from worldwidetorrents.to (0.1 KB)

Album: In My Defense Artist: Iggy Azalea Genre: Rap Hip Hop Date: 2019.

Album: In My Defense Artist: Iggy Azalea Genre: Rap Hip Hop Date: 2019.

Added 4 months ago in Music - Lossless Downloaded 1 time. Iggy Azalea - In My Defense (2019) Flac (21. 1 MB). ▼ show more 3 files. 01 - Thanks I Ge. lac. 1. 7 MB. 02 - Clap Back. MB. 03 - Sally Walker. 3 MB. 04 - Hoemita. 9 MB. 05 - Started.

Forums Audio Mania Albums (lossless) . . Isager22, Jan 23, 2019, in forum: Albums (lossless). FLAC Iggy Azalea - In My Defense Clean + Explicit. Discussion in 'Albums (lossless)' started by countthesaints, Jul 19, 2019.

info fense-(2019)-Flac Music. lac16 MB. flac19 MB. co Iggy Azalea - In My Defense (2019) Flac Music. ch fense-(2019)-Flac Music. eu Iggy Azalea - In My Defense (2019) Flac audio. flac18 MB. flac16 MB. flac20 MB. 06 - Spend I. lac21 MB.

ALBUM, TITLE: In My Defense. FILE FORMAT: FLAC (tracks). Release year, date: 2019. Country: USA. STYLE: Rap, Hip-Hop. LABEL: Bad Dreams Records, EMPIRE.

Iggy Azalea - Survive the Summer EP (2018). Preferred Audio Format: FLAC. By mR12 August 2, 2018 in Hip-Hop/Rap.

Underworld & Iggy Pop - Teatime Dub Encounters (2018). Self Defense Family - Have You Considered Punk Music (2018).

Download Album Iggy Azalea - In My Defense (2019) Free .Underworld & Iggy Pop - Teatime Dub Encounters (2018). Dear visitor, you went to the site as unregistered user. We recommend you to register or enter the site under your name.

Through Fire - All Animal. Scott Stapp - The Space Between The Shadows. Obey The Brave - Balance. Crown The Empire - Sudden Sky. Good Riddance - Thoughts And Prayers. Flaw - Vol IV: Because of the Brave. black midi ‎- Schlagenheim.


Quality-Lossless
Release-2019
Duration-00:35:32
File Size-222.3 MB
Genre-Rap | Hip Hop
Cover Size-1200px

Analyzed: In My Defense / Artist: Iggy Azalea
DR Peak RMS Duration Title [codec]
DR6 -0.07 dB -8.97 dB 2:33 01 - Thanks I Get [flac]
DR8 -0.03 dB -12.48 dB 3:28 02 - Clap Back [flac]
DR7 -0.06 dB -10.82 dB 2:58 03 - Sally Walker [flac]
DR9 -0.08 dB -12.61 dB 3:02 04 - Hoemita [flac]
DR7 -0.06 dB -10.63 dB 3:06 05 - Started [flac]
DR8 -0.07 dB -8.73 dB 3:12 06 - Spend It [flac]
DR7 -0.12 dB -9.85 dB 2:50 07 - Fuck It Up [flac]
DR6 -0.12 dB -8.63 dB 2:49 08 - Big Bag [flac]
DR7 -0.07 dB -9.81 dB 3:39 09 - Comme Des Garcons [flac]
DR7 -0.00 dB -9.55 dB 3:12 10 - Freak Of The Week [flac]
DR8 -0.07 dB -10.24 dB 2:46 11 - Just Wanna [flac]
DR6 -0.07 dB -8.67 dB 1:53 12 - Pussy Pop [flac]
Number of files: 12
Official DR value: DR7
Sampling rate: 44100 Hz
Average bitrate: 831kbs
Bits per sample: 16 bit

Related music:
RuthAnne - Matters Of The Heart Flac 2019 download RuthAnne - Matters Of The Heart Flac 2019
Lossless
English
297.1 MB
4.6
/images/5/8/ruthanne-matters-of-the-heart-flac-2019.jpg
Dominic Sen - Visitor Flac 2019 download Dominic Sen - Visitor Flac 2019
Lossless
English
265.2 MB
4.0
/images/5/5/dominic-sen-visitor-flac-2019.jpg
Sabrina Carpenter - Singular Act II 2019 download Sabrina Carpenter - Singular Act II 2019
Lossless
English
199.0 MB
4.9
/images/5/2/sabrina-carpenter-singular-act-ii-2019.jpg
Kalie Shorr - Open Book Flac-was95 2019 download Kalie Shorr - Open Book Flac-was95 2019
Lossless
English
302.9 MB
4.8
/images/5/8/kalie-shorr-open-book-flac-was95-2019.jpg
Electric Guest - KIN Flac 2019 download Electric Guest - KIN Flac 2019
Lossless
English
233.2 MB
4.8
/images/5/2/electric-guest-kin-flac-2019.jpg
Zaz - Recto Verso Flac 2013 download Zaz - Recto Verso Flac 2013
Lossless
English
490.0 MB
4.3
/images/5/1/zaz-recto-verso-flac-2013.jpg
Iggy Azalea - In My Defense 2019 320 KBPS download Iggy Azalea - In My Defense 2019 320 KBPS
Album
English
82.7 MB
4.2
/images/5/7/iggy-azalea-in-my-defense-2019-320-kbps-.jpg
Ingrid Michaelson - Stranger Songs Flac 2019 download Ingrid Michaelson - Stranger Songs Flac 2019
Lossless
English
222.6 MB
4.4
/images/5/3/ingrid-michaelson-stranger-songs-flac-2019.jpg
Nona - Nona Flac 2019 download Nona - Nona Flac 2019
Lossless
English
279.8 MB
4.8
/images/noimage.jpg