Files 42316
» » Brooke Miller - Familiar 2012 24bit Hi-Res 2019
Language: English
Size: 468.1 MB
Votes: 151
Downloaded: 60
Category: Lossless
Format: MP3, FLAC
4.1

File list

Brooke Miller - Familiar 2012 (2019) [24bit Hi-Res]
  • 01 - What You Know.flac (35.1 MB)
  • 02 - You Can See Everything.flac (47.4 MB)
  • 03 - There You Are.flac (54.6 MB)
  • 04 - Everywhere.flac (52.8 MB)
  • 05 - Familiar - Piano.flac (35.3 MB)
  • 06 - Shake It Off.flac (44.0 MB)
  • 07 - A.M. Song.flac (37.9 MB)
  • 08 - Two Soldiers.flac (48.2 MB)
  • 09 - Say That Dear.flac (40.9 MB)
  • 10 - Familiar - Guitar.flac (26.3 MB)
  • 11 - Quiet Night.flac (45.3 MB)
  • [TGx]Downloaded from torrentgalaxy.org .txt (0.6 KB)
  • dr14.txt (1.4 KB)
  • folder.jpg (321.3 KB)
  • Torrent Downloaded from Glodls.to.txt (0.2 KB)
  • Torrent downloaded from limetorrents.cc.txt (0.1 KB)
  • Torrent Downloaded from worldwidetorrents.to (0.1 KB)

Sampling rate: 44100 Hz Average bitrate: 1375kbs Bits per sample: 24 bi. Brooke Candy - SEXORCISM (2019) MP3 (320 Kbps). Posted in MP3. 8. 1 MB.

Sampling rate: 44100 Hz Average bitrate: 1375kbs Bits per sample: 24 bit. Related Torrents.

zip : 467,82 MB. Tracklist: 01. Brooke Miller - What You Know {1450 kbps} 02. Brooke Miller - You Can See Everything {1436 kbps} 03. Brooke Miller - There You Are {1338 kbps} 04.

Album: Familiar Artist: Brooke Miller Genre: Pop Date: 2012. The Fuze Shake Motherfucker Dsbr022 Single (2019) Fmc. The Revolution will be Digitised Dispatches from the Information War. Love and Hip Hop Miami S02E03 Familiar Feuds 720p HDTV x264-CRiMSON.

Brooke Miller - Familiar 2012 (2019) 14 torrent download locations. ch ar-2012-(2019)- Music. eu Brooke Miller - Familiar 2012 (2019) audio. com Brooke Miller - Familiar 2012 (2019). to Brooke Miller - Familiar 2012 (2019) Music Lossless. to Brooke Miller - Familiar 2012 (2019) flac.

ch ar-2012-(2019)- Music. eu Brooke Miller - Familiar 2012 (2019) Music.

Quality: FLAC 24 bit, 96 kHz (Tracks)Artist: Kacey MusgravesTitle: A Very Kacey ChristmasReleased: 2019Style: Country, Pop .

Have Yourself A Merry Little Christmas02. Al Y'm - Adeste fidelis (02:31)02. Al Y'm - Alle Jahre wieder (02:20)03.

Albums SACD ISO Brooke Miller - Familiar (2012) SACD + Hi-Res.

Lossless Albums SACD ISO Brooke Miller - Familiar (2012) SACD + Hi-Res. Brooke Miller - Familiar (2012) SACD + Hi-Res. Genres: SACD ISO, Hi-Res 24 bit, Country, Folk 17-01-2019, 22:29 366 Music land. All music Brooke Miller. Hi-Res 24 bit, FLAC 16 bit, Pop. Kylie Minogue - Golden: Live in Concert (2019) Hi-Res + FLAC.

Brooke Miller is an artist who distills all of the these experiences to produce the album's uniquely inspired . Already at the age of twelve Brooke Miller made her un-timid mark singing in a punk band

Brooke Miller is an artist who distills all of the these experiences to produce the album's uniquely inspired, character-rich compositions delivered with emotional warmth and melodic softness – but also with plenty of drive and energy. Already at the age of twelve Brooke Miller made her un-timid mark singing in a punk band. And, with her looks, one is not hard put to imagine that the attractive artist could have made a successful career in acting or modeling.


Quality-Lossless
Release-2012 - 2019
Duration-00:31:30
File Size-490.9 MB
Genre-Pop
Cover Size-1448px

Analyzed: Familiar / Artist: Brooke Miller
DR Peak RMS Duration Title [codec]
DR8 -1.20 dB -11.87 dB 3:20 01 - What You Know [flac]
DR10 -1.20 dB -14.08 dB 4:33 02 - You Can See Everything [flac]
DR9 -1.20 dB -13.55 dB 5:40 03 - There You Are [flac]
DR9 -1.20 dB -13.17 dB 5:21 04 - Everywhere [flac]
DR9 -1.20 dB -14.13 dB 3:53 05 - Familiar - Piano [flac]
DR9 -1.20 dB -13.08 dB 4:15 06 - Shake It Off [flac]
DR9 -1.20 dB -13.58 dB 3:50 07 - A.M. Song [flac]
DR8 -1.20 dB -13.05 dB 4:58 08 - Two Soldiers [flac]
DR9 -0.80 dB -14.38 dB 4:12 09 - Say That Dear [flac]
DR10 -1.20 dB -14.80 dB 2:43 10 - Familiar - Guitar [flac]
DR9 -1.20 dB -13.84 dB 4:38 11 - Quiet Night [flac]
Number of files: 11
Official DR value: DR9
Sampling rate: 44100 Hz
Average bitrate: 1375kbs
Bits per sample: 24 bit

Related music:
Erasure - Wild! 88.2-24bit Edition 1989 Remastered download Erasure - Wild! 88.2-24bit Edition 1989 Remastered
Lossless
English
2.1 GB
4.3
/images/5/0/erasure-wild21-882-24bit-edition-1989-remastered.jpg
Erasure - I Say I Say I Say 88.2-24bit 1994 download Erasure - I Say I Say I Say 88.2-24bit 1994
Lossless
English
821.6 MB
4.3
/images/5/8/erasure-i-say-i-say-i-say-882-24bit-1994.jpg
New Order - Technique Flac Remastered Collectors Edition 2008 download New Order - Technique Flac Remastered Collectors Edition 2008
Lossless
English
611.2 MB
4.9
/images/5/4/new-order-technique-flac-remastered-collectors-edition-2008.jpg
Dominic Sen - Visitor Flac 2019 download Dominic Sen - Visitor Flac 2019
Lossless
English
265.2 MB
4.0
/images/5/5/dominic-sen-visitor-flac-2019.jpg
Janice Hagan ‎– Let's Misbehave Flac 2004 download Janice Hagan ‎– Let's Misbehave Flac 2004
Lossless
English
410.2 MB
4.7
/images/5/6/janice-hagan-e2808ee28093-let27s-misbehave-flac-2004.jpg
Clare Bowen - Clare Bowen 24bit Hi-Res 2019 download Clare Bowen - Clare Bowen 24bit Hi-Res 2019
Lossless
English
519.7 MB
4.4
/images/5/6/clare-bowen-clare-bowen-24bit-hi-res-2019.jpg
Sophie Zelmani - Sing and Dance Flac-was95 2001 download Sophie Zelmani - Sing and Dance Flac-was95 2001
Lossless
English
242.5 MB
4.8
/images/5/8/sophie-zelmani-sing-and-dance-flac-was95-2001.jpg
Skillet - Awake 24-96 Hi-Res 2009 download Skillet - Awake 24-96 Hi-Res 2009
Lossless
English
904.9 MB
4.9
/images/5/2/skillet-awake-24-96-hi-res-2009.jpg
Sibéal - Sibéal Flac 2019 download Sibéal - Sibéal Flac 2019
Lossless
English
265.6 MB
4.1
/images/5/7/sibc3a9al-sibc3a9al-flac-2019.jpg