Files 42316
» » The Prodigy – The Fat of the Land Japan Reissue 2004 Flac Cue TNT
Language: English
Size: 506.6 MB
Votes: 974
Downloaded: 35
Category: Lossless
Format: MP3, FLAC
4.6

File list

  • 01 The Prodigy - Smack My Bitch Up.flac (39.5 MB)
  • 02 The Prodigy - Breathe.flac (39.0 MB)
  • 03 The Prodigy - Diesel Power.flac (32.5 MB)
  • 04 The Prodigy - Funky Shit.flac (35.7 MB)
  • 05 The Prodigy - Serial Thrilla.flac (39.6 MB)
  • 06 The Prodigy - Mindfields.flac (39.8 MB)
  • 07 The Prodigy - Narayan.flac (65.3 MB)
  • 08 The Prodigy - Firestarter.flac (33.1 MB)
  • 09 The Prodigy - Climbatize.flac (48.6 MB)
  • 10 The Prodigy - Fuel My Fire.flac (34.0 MB)
  • 11 The Prodigy - Molotov Bitch.flac (31.7 MB)
  • 12 The Prodigy - No Man Army.flac (35.9 MB)
Artwork
  • TFOTL - Back 2.jpg (877.2 KB)
  • TFOTL - Back.jpg (1.3 MB)
  • TFOTL - Booklet 01.jpg (2.0 MB)
  • TFOTL - Booklet 02.jpg (2.7 MB)
  • TFOTL - Booklet 03.jpg (1.9 MB)
  • TFOTL - Booklet 04.jpg (2.2 MB)
  • TFOTL - Booklet 05.jpg (1.8 MB)
  • TFOTL - Booklet 06.jpg (1.8 MB)
  • TFOTL - Booklet 07.jpg (1.9 MB)
  • TFOTL - Booklet 08.jpg (2.2 MB)
  • TFOTL - Booklet 09.jpg (2.0 MB)
  • TFOTL - Booklet 10.jpg (2.7 MB)
  • TFOTL - Booklet 11.jpg (1.1 MB)
  • TFOTL - Booklet 12.jpg (1.5 MB)
  • TFOTL - Booklet 13.jpg (1.2 MB)
  • TFOTL - Booklet 14.jpg (912.8 KB)
  • TFOTL - Booklet 15.jpg (1.0 MB)
  • TFOTL - Booklet 16.jpg (988.7 KB)
  • TFOTL - CD.jpg (793.6 KB)
  • TFOTL - Front.jpg (108.7 KB)
  • TFOTL - Inlay.jpg (1.1 MB)
  • The Prodigy - The Fat Of The Land (Image).cue (1.4 KB)
  • The Prodigy - The Fat Of The Land (Tracks).cue (1.9 KB)
  • The Prodigy - The Fat Of The Land.log (5.8 KB)
  • The Prodigy - The Fat Of The Land.m3u (0.4 KB)

Prodigy-The Fat Of The Land (Ravenous333) 13. M. If the content above is not authorized, please contact us via contactp2bt. Remember to include the full url in your complaint.

Prodigy-The Fat Of The Land (Ravenous333) 13. MB. Prodigy - The Fat of the Land 7. Prodigy - The Fat Of The Land (1997) (FLAC-EAC-. 41. The Prodigy The Fat Of The Land . GB. Prodigy-The. All resources are automatically indexed from the DHT network. Instead of torrent files, we store meta information only for indexing.

The Prodigy – The Fat of the Land.

to 711 MB 2013-01-07 2 1. The Prodigy - 4 альбома + 3 сингла (1993-1997)

caratterizzato da una particolare miscela di elettronica, techno, rock. The Fat of the Land è l'album più famoso e quello di maggior successo di vendite.

Recensione :. I Prodigy sono un gruppo big beat britannico, formatosi a Braintree nel 1990. caratterizzato da una particolare miscela di elettronica, techno, rock. I singoli estratti che hanno consacrato la band sono, tra gli altri: Breathe, Smack My Bitch Up, Firestarter.

The fat of the land (1997). 1. Smack My Bitch Up 2. Breathe 3. Diesel Power 4. Funky Shit 5. Serial Thrilla 6. Mindfields 7. Narayan 8. Firestarter 9. Climbatize 10. Fuel My Fire.

the prodigy cd discography Жанр electro breakbeat Производитель диска uk usa japan australia Аудио кодек flac Тип рипа tracks+ cue Битрейт аудио lossless (accuraterip) . The Prodigy, The Fat of the Land. Used drive : ASUS DRW-2014L1T Adapter: 3 ID: 1. Read mode : Secure.

2004 - The Fat Of The Land (Sony, SRCP 378). Bomb The Bass & Grandmaster Flash and The Furious Five & The Charlatans & Prodigy & Janes Addiction & Tim Dog featuring Kr's one & Babe Ruth & The B-Boys (6:45) 03. Chemical Brothers & Word Of Mouth & DJ Mink (6:04) 04. KLF & Frankie Bones & Meat Beat Manifesto & Herbie Hancock & Mark The 45 King & Propeller Heads & Beastie Boys (7:52) 05.

Released on December 3, 'The Fat Of The Land' reissue will come with 'The Added Fat' EP featuring six remixes, details of which you can find below. Breathe (Zeds Dead Remix) 14. Mindfields (Baauer Remix) 15. Breathe (The Glitch Mob Remix) 16. Smack My Bitch Up (Major Lazer Remix).

XL. Cat: XLDA 586 Released: 3 December, 2012 Genre: Breakbeat. What is Album Only? Some artists and labels prefer certain tracks to be purchased as part of an entire release. Help & Information.

The Prodigy – The Fat of the Land [Japan Reissue 2004][Flac Cue][TNT]
The Prodigy
The Fat of the Land

[Japanese Reissue 2004 - With 2 Bonus track]



.: Recensione :.
I Prodigy sono un gruppo big beat britannico, formatosi a Braintree nel 1990.
Sono stati fondati da Liam Howlett nel 1990 a Braintree, Essex, dopo che Keith Flint, Leeroy Thornhill e il dj-musicista Liam Howlett si conobbero a un rave party. Poche ore prima del loro debutto sulle scene entrerà a far parte del gruppo l'MC Maxim Reality, contattato all'ultimo momento dal manager del gruppo che all'epoca era un loro amico. Nacque l'idea di formare un gruppo di dj-musicisti-ballerini per suonare musica da destinare a questo tipo di feste. All'inizio era presente anche una terza ballerina on stage, Sharkey, che mollò il gruppo poco prima dell'esordio discografico perché non voleva trasformare la sua passione in lavoro. Nel 2000 Leeroy Thornhill smette i panni di ballerino per dedicarsi completamente ad un suo progetto solista in qualità di dj. Il nome del gruppo deriva da un sintetizzatore della famiglia Moog (chiamato per l'appunto Prodigy) che Howlett utilizzava per comporre.
Il primo album, The Prodigy Experience, risente fortemente della cultura dei rave, combinando canzoni estremamente potenti (Jericho, Charly) con l'anima festaiola e goliardica della band.
Music for the Jilted Generation è il loro primo album commercialmente di successo. È caratterizzato da una particolare miscela di elettronica, techno, rock.
The Fat of the Land è l'album più famoso e quello di maggior successo di vendite. I singoli estratti che hanno consacrato la band sono, tra gli altri: Breathe, Smack My Bitch Up, Firestarter.
-
.: The Fat of the Land :.

Title:The Fat of the Land
Year:1997
Release Date:Reissue 18 August 2004
Genere:Electonic, BigBeat
Label:Sony Music Records ‎– SRCP 378
Number of Discs:1
Number of Tracks:10+2 [Japanese Version]
Audio Codec:Flac
Quality:(see Technical Data and log file for more info)
Playtime:48 min :27 sec


The Prodigy – The Fat of the Land - Tracklist
Tracklist Show Credits
1 Smack My Bitch Up 5:42
2 Breathe 5:34
3 Diesel Power 4:17
4 Funky Shit 5:16
5 Serial Thrilla 5:11
6 Mindfields 5:39
7 Narayan 9:06
8 Firestarter 4:41
9 Climbatize 6:36
10 Fuel My Fire 4:18
11 Molotov Bitch 4:51 *
12 No Man Army 4:44 *
* Japan Re-release with 2 bonus tracks


[spoiler]
Exact Audio Copy V0.99 prebeta 5 from 4. May 2009
EAC extraction logfile from 28. October 2009, 16:15
The Prodigy / The Fat Of The Land
Used drive : ASUS DRW-20B1LT Adapter: 3 ID: 0
Read mode : Secure
Utilize accurate stream : Yes
Defeat audio cache : Yes
Make use of C2 pointers : No
Read offset correction : 6
Overread into Lead-In and Lead-Out : No
Fill up missing offset samples with silence : Yes
Delete leading and trailing silent blocks : No
Null samples used in CRC calculations : Yes
Used interface : Installed external ASPI interface
Gap handling : Appended to previous track
Used output format : User Defined Encoder
Selected bitrate : 768 kBit/s
Quality : High
Add ID3 tag : No
Command line compressor : C:Program FilesFLACflac.exe
Additional command line options : -8 -V -T "ARTIST=%a" -T "TITLE=%t" -T "ALBUM=%g" -T "DATE=%y" -T "TRACKNUMBER=%n" -T "GENRE=%m" %s
TOC of the extracted CD
Track | Start | Length | Start sector | End sector
-
1 | 0:00.00 | 5:42.68 | 0 | 25717
2 | 5:42.68 | 5:34.60 | 25718 | 50827
3 | 11:17.53 | 4:17.46 | 50828 | 70148
4 | 15:35.24 | 5:16.07 | 70149 | 93855
5 | 20:51.31 | 5:11.59 | 93856 | 117239
6 | 26:03.15 | 5:39.57 | 117240 | 142721
7 | 31:42.72 | 9:06.07 | 142722 | 183678
8 | 40:49.04 | 4:41.07 | 183679 | 204760
9 | 45:30.11 | 6:36.71 | 204761 | 234531
10 | 52:07.07 | 4:21.48 | 234532 | 254154
11 | 56:28.55 | 4:53.40 | 254155 | 276169
12 | 61:22.20 | 4:44.64 | 276170 | 297533
Track 1
Filename D:MusicLosslessThe Prodigy - The Fat Of The Land (SRCP 378)1 The Prodigy - Smack My Bitch Up.wav
Pre-gap length 0:00:02.00
Peak level 100.0 %
Track quality 100.0 %
Test CRC 6AD4A01C
Copy CRC 6AD4A01C
Accurately ripped (confidence 1) [F0C75422]
Copy OK
Track 2
Filename D:MusicLosslessThe Prodigy - The Fat Of The Land (SRCP 378)2 The Prodigy - Breathe.wav
Pre-gap length 0:00:00.48
Peak level 100.0 %
Track quality 100.0 %
Test CRC B837D764
Copy CRC B837D764
Accurately ripped (confidence 1) [BCC94440]
Copy OK
Track 3
Filename D:MusicLosslessThe Prodigy - The Fat Of The Land (SRCP 378)3 The Prodigy - Diesel Power.wav
Peak level 100.0 %
Track quality 100.0 %
Test CRC 41FF4B53
Copy CRC 41FF4B53
Accurately ripped (confidence 1) [1EC9B537]
Copy OK
Track 4
Filename D:MusicLosslessThe Prodigy - The Fat Of The Land (SRCP 378)4 The Prodigy - Funky Shit.wav
Pre-gap length 0:00:00.63
Peak level 100.0 %
Track quality 100.0 %
Test CRC 796ECA09
Copy CRC 796ECA09
Accurately ripped (confidence 1) [2779AD9A]
Copy OK
Track 5
Filename D:MusicLosslessThe Prodigy - The Fat Of The Land (SRCP 378)5 The Prodigy - Serial Thrilla.wav
Peak level 100.0 %
Track quality 100.0 %
Test CRC AF136963
Copy CRC AF136963
Accurately ripped (confidence 1) [0D639D59]
Copy OK
Track 6
Filename D:MusicLosslessThe Prodigy - The Fat Of The Land (SRCP 378)6 The Prodigy - Mindfields.wav
Peak level 100.0 %
Track quality 100.0 %
Test CRC 140AA4A1
Copy CRC 140AA4A1
Accurately ripped (confidence 1) [D6DB3ADB]
Copy OK
Track 7
Filename D:MusicLosslessThe Prodigy - The Fat Of The Land (SRCP 378)7 The Prodigy - Narayan.wav
Peak level 100.0 %
Track quality 100.0 %
Test CRC AD1A2587
Copy CRC AD1A2587
Accurately ripped (confidence 1) [F097108A]
Copy OK
Track 8
Filename D:MusicLosslessThe Prodigy - The Fat Of The Land (SRCP 378)8 The Prodigy - Firestarter.wav
Peak level 100.0 %
Track quality 100.0 %
Test CRC F523D741
Copy CRC F523D741
Accurately ripped (confidence 1) [53C03DC8]
Copy OK
Track 9
Filename D:MusicLosslessThe Prodigy - The Fat Of The Land (SRCP 378)9 The Prodigy - Climbatize.wav
Pre-gap length 0:00:01.20
Peak level 100.0 %
Track quality 100.0 %
Test CRC B3E300C8
Copy CRC B3E300C8
Accurately ripped (confidence 1) [50A01573]
Copy OK
Track 10
Filename D:MusicLosslessThe Prodigy - The Fat Of The Land (SRCP 378)10 The Prodigy - Fuel My Fire.wav
Pre-gap length 0:00:02.04
Peak level 100.0 %
Track quality 100.0 %
Test CRC E03332A8
Copy CRC E03332A8
Accurately ripped (confidence 1) [ED63AE09]
Copy OK
Track 11
Filename D:MusicLosslessThe Prodigy - The Fat Of The Land (SRCP 378)11 The Prodigy - Molotov Bitch.wav
Pre-gap length 0:00:03.00
Peak level 100.0 %
Track quality 99.9 %
Test CRC E2D146EA
Copy CRC E2D146EA
Accurately ripped (confidence 1) [775E53B4]
Copy OK
Track 12
Filename D:MusicLosslessThe Prodigy - The Fat Of The Land (SRCP 378)12 The Prodigy - No Man Army.wav
Pre-gap length 0:00:01.49
Peak level 100.0 %
Track quality 100.0 %
Test CRC DD72E3AD
Copy CRC DD72E3AD
Accurately ripped (confidence 1) [E27EB1F6]
Copy OK
All tracks accurately ripped
No errors occurred
End of status report
[/spoiler]

> Cover Included - Front - Back - CD - Inlay - Booklet <

Related music:
J E T - Fede Speranza Carità Rare Italian Prog Rock Flac 1972 TNTVillage download J E T - Fede Speranza Carità Rare Italian Prog Rock Flac 1972 TNTVillage
Lossless
Italian
280.5 MB
4.1
/images/5/5/j-e-t-fede-speranza-caritc3a0-rare-italian-prog-rock-flac-1972-tntvillage.jpg
The Prodigy - 2018 - No Tourists EAC FLAC WWRG download The Prodigy - 2018 - No Tourists EAC FLAC WWRG
Lossless
English
270.1 MB
4.5
/images/5/4/the-prodigy-2018-no-tourists-eac-flac-wwrg.jpg
Gregorian - The Dark Side Mp3 320 kbps Special Rock Edition 2004 download Gregorian - The Dark Side Mp3 320 kbps Special Rock Edition 2004
MP3
English
117.4 MB
4.1
/images/5/3/gregorian-the-dark-side-mp3-320-kbps-special-rock-edition-2004.jpg
Mau Mau Sauta Rabel folk rock FLAC download Mau Mau Sauta Rabel folk rock FLAC
Lossless
Italian
360.7 MB
4.9
/images/5/4/mau-mau-sauta-rabel-folk-rock-flac-.jpg
AK47-Fuori dal centro download AK47-Fuori dal centro
Lossless
Italian
250.3 MB
4.9
/images/5/0/ak47-fuori-dal-centro.jpg
The Dillinger Escape Plan - Irony Is a Dead Scene vorbis q7 download The Dillinger Escape Plan - Irony Is a Dead Scene vorbis q7
Album
English
30.7 MB
4.9
/images/5/3/the-dillinger-escape-plan-irony-is-a-dead-scene-vorbis-q7-.jpg
The Prodigy Discography 1997 to 2004 download The Prodigy Discography 1997 to 2004
MP3
English
728.9 MB
4.4
/images/5/8/the-prodigy-discography-1997-to-2004.jpg
The Prodigy Very Best 2000 FLAC 2CD download The Prodigy Very Best 2000 FLAC 2CD
Lossless
English
848.7 MB
4.3
/images/5/6/the-prodigy-very-best-2000-flac-2cd.jpg