Files 42316
» » Metallimania DVDRip x264 AAC peaSoup 1997
Language: English
Size: 1.8 GB
Votes: 189
Downloaded: 47
Category: DVD
Format: MP3, FLAC
4.2

File list

  • Metallimania (1997) DVDRip x264 AAC peaSoup.mp4 (1.8 GB)

Video CodingDuration : 1h 48mnBit rate : 2 242 KbpsWidth : 624 pixelsHeight : 480 pixelsDisplay aspect ratio : 4:3Frame rate mode : ConstantFrame rate : 2. 70 fpsColor space : YUVChroma.

Metallimania (1997) DVDRip x264 AAC peaSoup. You cannot download any of those files from here. You cannot download any of those files from here 0s, bl;ue Bloods S10E08 2s, geetha 0s, talvar movie 1s, title: Fred Saberhagen Shiva in Steel 1s, MYLF 1s, ufc fight night: iaquinta vs. cowboy 1s, interteller 1s, tv RiffTrax S01 2s. 05s.

BTC: 77DwAzfAZz2fMn BTC (Bech32): ew LTC: r6tcoW3WaYynx9 XMR

Скачать с помощью Mediaget. com/Truth or Consequences NM p BluRay H264 AAC-RARBG.

Скачать с помощью Mediaget.

Страна: США. Формат: 320 mp.

Urusei Yatsura Movie 05 ~ The Final Chapter. Urusei Yatsura Movie 2: Beautiful Dreamer (1984) : Hosts.

    StorylineThe wackiest, most dangerous, and drunkest rock and roll documentary ever made! Over 100 minutes of ridiculous debauchery with heavy metal's all time kings and their legion of maniacal fans. Whether you love, hate, or could give a crap about Metallica, this film will have you passed out in the bushes!
    Format : MPEG-4Format profile : Base Media / Version 2Codec ID : mp42File size : 1.80 GiBDuration : 1h 48mnOverall bit rate mode : VariableOverall bit rate : 2 374 KbpsMovie name : Metallimania DVDRip x264 AAC peaSoupVideoID : 1Format : AVCFormat/Info : Advanced Video CodecFormat profile : [email protected] settings, CABAC : YesFormat settings, ReFrames : 1 frameCodec ID : avc1Codec ID/Info : Advanced Video CodingDuration : 1h 48mnBit rate : 2 242 KbpsWidth : 624 pixelsHeight : 480 pixelsDisplay aspect ratio : 4:3Frame rate mode : ConstantFrame rate : 29.970 fpsColor space : YUVChroma subsampling : 4:2:0Bit depth : 8 bitsScan type : ProgressiveBits/(Pixel*Frame) : 0.250Stream size : 1.70 GiB (94%)Writing library : x264 coreEncoded date : UTC 2014-08-20 14:37:23Tagged date : UTC 2014-08-20 15:00:48Color primaries : BT.601 NTSCTransfer characteristics : BT.709Matrix coefficients : BT.601AudioID : 2Format : AACFormat/Info : Advanced Audio CodecFormat profile : LCCodec ID : 40Duration : 1h 48mnBit rate mode : VariableBit rate : 128 KbpsMaximum bit rate : 179 KbpsChannel(s) : 2 channelsChannel positions : Front: L RSampling rate : 48.0 KHzCompression mode : LossyStream size : 99.4 MiB (5%)Language : EnglishEncoded date : UTC 2014-08-20 14:37:23Tagged date : UTC 2014-08-20 15:00:33MenuID : 3Codec ID : textDuration : 1h 48mnEncoded date : UTC 2014-08-20 14:37:23Tagged date : UTC 2014-08-20 15:00:52Bit rate mode : CBR

Related music:
Tu Hi junoon 720p HD Full song download Tu Hi junoon 720p HD Full song
Video
Hindi
78.7 MB
4.5
/images/5/8/tu-hi-junoon-720p-hd-full-song.jpg
Eagles - Hell Freezes Over DVDRip XviD AC3 peaSoup 2005 download Eagles - Hell Freezes Over DVDRip XviD AC3 peaSoup 2005
DVD
English
1.9 GB
4.4
/images/5/0/eagles-hell-freezes-over-dvdrip-xvid-ac3-peasoup-2005.jpg
katy perry waking up in vegas dvdrip x264 2009 mkv h33t Dave3737 download katy perry waking up in vegas dvdrip x264 2009 mkv h33t Dave3737
Video
English
46.0 MB
4.4
/images/5/4/katy-perry-waking-up-in-vegas-dvdrip-x264-2009-mkv-h33t-dave3737.jpg
Rihanna ft Jeezy Hard DVDRIP x264 Dave3737 download Rihanna ft Jeezy Hard DVDRIP x264 Dave3737
Video
English
44.7 MB
4.2
/images/5/2/rihanna-ft-jeezy-hard-dvdrip-x264-dave3737.jpg
Ik Tu Hi Tu Hi - Mausam 720P HD Video Song 2011 download Ik Tu Hi Tu Hi - Mausam 720P HD Video Song 2011
Video
Hindi
86.3 MB
4.4
/images/5/7/ik-tu-hi-tu-hi-mausam-720p-hd-video-song-2011.jpg
One Direction - Midnight Memories X264 1080p TonyStark download One Direction - Midnight Memories X264 1080p TonyStark
Video
English
101.3 MB
4.4
/images/5/5/one-direction-midnight-memories-x264-1080p-tonystark.jpg