Files 42316
» » The Best of Motorhead DVDRip 6CH AC-3
Language: English
Size: 1.2 GB
Votes: 811
Downloaded: 17
Category: DVD
Format: MP3, FLAC
4.7

File list

  • BestOfMotorh.7z_meta.sqlite (9.0 KB)
  • BestOfMotorh.7z_meta.xml (0.8 KB)
  • Best_Of_Motorh.7z (1.2 GB)

END OF WATCH (2012) DVDRip.

END OF WATCH (2012) DVDRip. В данный момент эта функция недоступна. Повторите попытку позже.

Best of Motorhead is a 2002 compilation DVD featuring the British heavy metal band Motorhead, filmed while they were under contract to Bronze Records in 1980 to 1984. The video was originally released in 1986 as Deaf Not Blind, although with a slightly different programme. The performances are filmed in a live concert setting, although the band mime to studio recordings from the albums. Track List: 1. "Ace of Spades" 2. "Overkill" 3. "No Class" 4. "I Got Mine 5. "Stay Clean" 6. "Iron Fist" 7. "The Chase Is Better.

The Best of Motorhead is a great collection of songs Two discs loaded with classic Motorhead hits on it including some of the songs done by both Motorhead and Girlschool like "Please Don't Touch"

The Best of Motorhead is a great collection of songs. I've had it for about a month now and it's almost all I listen to. This was the first Motorhead CD(s) I've bought. Two discs loaded with classic Motorhead hits on it including some of the songs done by both Motorhead and Girlschool like "Please Don't Touch". Great album to own if you are new or are trying to get into Motorhead and still a good one to have if you have been a fan for a long time. Be sure to check out Lemmy's work since this album also!

779 B. Best Of Motorh.

779 B.

Motorhead - The Best Of Motorhead (2005) DVDRip - отправлено в Музыкальное видео: Title: Motorhead - The Best Of Motorhead Artists: Motorhead: Ian "Lemmy" Kilmister, Phil Campbell, Mikkey Dee Country: UK Director: Keef Studio: Bmg Special . .

Motorhead - The Best Of Motorhead (2005) DVDRip - отправлено в Музыкальное видео: Title: Motorhead - The Best Of Motorhead Artists: Motorhead: Ian "Lemmy" Kilmister, Phil Campbell, Mikkey Dee Country: UK Director: Keef Studio: Bmg Special Product Label: Secondary Digital Ent. DVD Release Date: April 23, 2002 VHS Release Date: 1993-07-06 (Stereo) Год события : 1981 - 1993 Genre: Best of, Greatest Hits Collections, Videos, Compilation Style: Heavy Meta.

2000 - The Best Of Motorhead CD 1 0. Fire Fire (Live) 20. Bite The Bullet/The Chase Is Better Than The Catch (Live).

2000 - The Best Of Motorhead CD 1 01. Ace Of Spades 02. Overkill (Long Version) 0. 2000 - The Best Of Motorhead CD 2 01. Iron Fist 02. Heart Of Stone 03.

The Best Of is a 2-CD compilation album by the band Motörhead, released in August 2000 on the Sanctuary Records subsidiary label Metal-Is. The Best Of includes 37 Motörhead tracks spanning the band's career from 1977 to 2000, including four previously unreleased live tracks recorded in 1981.

Important! : Do not use Magnet Link! It does not work. Use only "Download Torrent" button.
It´s because this torrent is in the seedbox, wich doesn´t support magnet downloads.
That seedbox also requires, that the files must be archived (7-Zip/Zip/Rar). Sorry about that.
Notice (updated): You need only the 7-Zip file of the files in this torrent.
However, maybe it´s better to download them all, to avoid seeding or 7-Zip extraction errors.
No seeds in this torrent?? No worries. Seedbox will seed this torrent immediately,
after You have opened this in Your torrent client. And it will seed it very decent speed.
Now... Let´s go to the business, shall We?:
The Best of Motorhead DVDRip 6CH AC-3 [JUHAX69X]

Best of Motorhead is a 2002 compilation DVD featuring the British heavy metal band Motorhead,
filmed while they were under contract to Bronze Records in 1980 to 1984. The video was originally
released in 1986 as Deaf Not Blind, although with a slightly different programme. The performances
are filmed in a live concert setting, although the band mime to studio recordings from the albums.
(Source: Wikipedia)
Track List:
1. "Ace of Spades"
2. "Overkill"
3. "No Class"
4. "I Got Mine
5. "Stay Clean"
6. "Iron Fist"
7. "The Chase Is Better Than the Catch"
8. "Dead Men Tell No Tales"
9. "Shine"
10. "Capricorn"
11. "Poison"
12. "One Track Mind"
13. "Motorhead" (Kilmister)
14. "Bomber"
Bonus Video: "Killed by Death" *)
Media Info:
General
ID: 0 (0x0)
Complete name: Motorhead The Best Of MotorheadThe Best Of Motorhead.ts
Format: MPEG-TS
File size: 1.21 GiB
Duration: 48mn 43s
Overall bit rate mode: Variable
Overall bit rate: 3 545 Kbps
Maximum Overall bit rate: 48.0 Mbps
Video
ID: 4113 (0x1011)
Menu ID: 1 (0x1)
Format: AVC
Format/Info: Advanced Video Codec
Format profile: [email protected]
Format settings, CABAC: Yes
Format settings, ReFrames: 2 frames
Codec ID: 27
Duration: 48mn 43s
Bit rate mode: Variable
Bit rate: 2 723 Kbps
Maximum bit rate: 30.0 Mbps
Width: 634 pixels
Height: 480 pixels
Display aspect ratio: 4:3
Frame rate: 29.970 fps
Color space: YUV
Chroma subsampling: 4:2:0
Bit depth: 8 bits
Scan type: Progressive
Bits/(Pixel*Frame): 0.299
Stream size: 949 MiB (77%)
Writing library: x264 core
Color primaries: BT.601 NTSC
Transfer characteristics: BT.709
Matrix coefficients: BT.601
Audio
ID: 4352 (0x1100)
Menu ID: 1 (0x1)
Format: AC-3
Format/Info: Audio Coding 3
Mode extension: CM (complete main)
Format settings, Endianness: Big
Codec ID: 129
Duration: 48mn 43s
Bit rate mode: Constant
Bit rate: 640 Kbps
Channel(s): 6 channels
Channel positions: Front: L C R, Side: L R, LFE
Sampling rate: 48.0 KHz
Bit depth: 16 bits
Compression mode: Lossy
Stream size: 223 MiB (18%)

About this DVDRip upload:
"Early Motorhead" kicks the 5th gear on and shows how to Rock! Every Motorhead Fans have
to see this. Turn volume wide far open and drive Your neighbours nuts, with

6 channel

blast.
*) Bonus Video: "Killed by Death"
Track was not included in My DVD version. So I added that separately in here as two versions: Live and Studio.
Thank You.

Related music:
Nightwish: Live Concert RMJ 2003 Finland 720p AAC 2CH download Nightwish: Live Concert RMJ 2003 Finland 720p AAC 2CH
Video
English
851.9 MB
4.5
/images/5/4/nightwish3a-live-concert-rmj-2003-finland-720p-aac-2ch-.jpg
Nightwish: Over The Hills And Far Away FLAC Official Collector´s Edition download Nightwish: Over The Hills And Far Away FLAC Official Collector´s Edition
Lossless
English
531.3 MB
4.5
/images/5/2/nightwish3a-over-the-hills-and-far-away-flac-official-collectorc2b4s-edition.jpg
Motorhead - The Very Best of Motorhead - download Motorhead - The Very Best of Motorhead -
Lossless
English
352.4 MB
4.4
/images/5/4/motorhead-the-very-best-of-motorhead-.jpg
HIM Greatest Love Songs Vol 666 FLAC download HIM Greatest Love Songs Vol 666 FLAC
Lossless
English
309.9 MB
4.3
/images/5/6/him-greatest-love-songs-vol-666-flac-.jpg
Marilyn Manson The High End Of Low FLAC download Marilyn Manson The High End Of Low FLAC
Lossless
English
536.5 MB
4.7
/images/5/1/marilyn-manson-the-high-end-of-low-flac-.jpg
Motley Crue Dr Feelgood FLAC Remastered "Crucial Crue" download Motley Crue Dr Feelgood FLAC Remastered "Crucial Crue"
Lossless
English
485.2 MB
4.1
/images/5/3/motley-crue-dr-feelgood-flac-remastered-22crucial-crue22.jpg
Marilyn Manson Guns God And Government DVDRip 6CH AC-3 5 1 download Marilyn Manson Guns God And Government DVDRip 6CH AC-3 5 1
Video
English
2.5 GB
4.2
/images/5/9/marilyn-manson-guns-god-and-government-dvdrip-6ch-ac-3-5-1-.jpg
Billy Idol Greatest Hits FLAC 2001 Remastered download Billy Idol Greatest Hits FLAC 2001 Remastered
Lossless
English
504.1 MB
4.8
/images/5/1/billy-idol-greatest-hits-flac-2001-remastered.jpg
The Essential Motorhead mp3 peaSoup download The Essential Motorhead mp3 peaSoup
MP3
English
333.4 MB
4.2
/images/5/8/the-essential-motorhead-mp3-peasoup.jpg
HIM: Razorblade Romance FLAC download HIM: Razorblade Romance FLAC
Lossless
English
301.7 MB
4.6
/images/5/5/him3a-razorblade-romance-flac-.jpg