Files 42316
» » AC/DC : Live At Donington 1080p BDRip x265 PCM 5 1 Kira 1991
Language: English
Size: 13.6 GB
Votes: 278
Downloaded: 22
Category: Concerts
Format: MP3, FLAC
4.2

File list

  • AC_DC - Live At Donington [1991] 1080p BDRip x265 PCM 5.1 Kira [SEV].mkv (13.6 GB)

AC/DC - Shoot To Thrill (Iron Man 2 Version). Brian Johnson, Malcolm Young, Angus Young.

AC/DC - Shoot To Thrill (Iron Man 2 Version). SME (от лица компании "Epic"); ARESA, Abramus Digital, LatinAutor, Alberts, LatinAutor - PeerMusic, CMRRA, ASCAP" и другие авторские общества (13).

info -PCM-5-1-Kira- Music. to AC DC - Live At Donington 1080p BDRip x265 PCM . Kir. co AC DC - Live At Donington 1080p BDRip x265 PCM 5 1 Kira Music. 1 day. torrentdownload. ch AC M-5-1-Kira-mkv Music.

AC/DC – Heatseeker (Live At Donington Park, 1991). AC/DC – Hell Ain't a Bad Place to Be. 5:52.

AC/DC (Live At Donington (1991)) скачать mp3 в хорошем качестве, либо слушайте песню AC/DC - Hells Bells, AC/DC - Shoot to Thrill, AC/DC - Whole Lotta Rosie, AC/DC - Hell Ain't a Bad Place to Be, AC/DC - Thunderstruck ( Donington Live 1991), а также рингтоны на звонок и все новые треки. AC/DC – Heatseeker (Live At Donington Park, 1991).

Live at Donington is the DVD recording of the Australian rock band by AC/DC show at Donington Park on 17 August 1991, and it was the band's third Monsters of Rock festival. The two-hour show was performed before 72,500 spectators and included real cannons, the Hells Bell, an inflatable Rosie and an inflatable Angus. It was filmed in 35 mm Panavision and had 26 cameras that included one situated inside a helicopter.

When AC/DC came crashing through the gates of Castle Donington in August if 1991, they were headlining their third . Listening to the . PCM mix on this Blu-ray release is an absolute aural treat - "high voltage rock and roll" indeed.

When AC/DC came crashing through the gates of Castle Donington in August if 1991, they were headlining their third "Monsters Of Rock" festival at the fabled venue. This is one of the best mixed live Hard Rock shows I've heard a recording of in recent memory.

AC/DC: Live at Donington HD 1080p Online Free. Filmed coverage of legendary Australian band AC/DC's third headlining show at the "Monsters of Rock" festival in Castle Donington, UK. Watch AC/DC: Live at Donington. Genre: Documentary, Music. Actor: Angus Young, Malcolm Young, Brian Johnson, Cliff Williams.

ALBUM, TITLE: Live at Donington. LABEL: Columbia Records. File format: mkv (. 64). QUALITY: BDRip 1080p. Release year, date: 1991, 2007. COUNTRY: Sydney, New South Wales, Australia. Audio: PCM, 1536kbps, 48kHz, 2ch. Video: MKV - 1920x1080, 23 fps, 17000 kbps.

AC DC Live At Donington 1080p BDRip x265 PCM . Kira 01. About. Don't autodelete After 5 minutes After 15 minutes After 30 minutes After 1 hour After 2 hours After 6 hours After 12 hours After 1 day After 2 days After 3 days After 1 week After 2 weeks After 1 month. Description optional.


Screenshot's

Media Information


Code:


General
Unique ID                   : 33119928568721212230080432604179993074 (0x18EAAA8D4E23555ED290C28EF1DA11F2)
Complete name               : AC_DC - Live At Donington [1991] 1080p BDRip x265 PCM 5.1 Kira [SEV].mkv
Format                      : Matroska
Format version              : Version 4
File size                   : 13.6 GiB
Duration                    : 1 h 58 min
Overall bit rate            : 16.5 Mb/s
Movie name                  : | AC/DC : Live At Donington [1991] | 1080p | BDRip | x265 | PCM 5.1 @ 6912 Kbps | PCM 2.0 @ 2304 Kbps | Kira [SEV] |
Encoded date                : UTC 2019-06-16 01:41:32
Writing application         : mkvmerge v34.0.0 ('Sight and Seen') 64-bit
Writing library             : libebml v1.3.7 + libmatroska v1.5.0
Video
ID                          : 1
Format                      : HEVC
Format/Info                 : High Efficiency Video Coding
Format profile              : Main [email protected]@Main
Codec ID                    : V_MPEGH/ISO/HEVC
Duration                    : 1 h 58 min
Bit rate                    : 7 062 kb/s
Width                       : 1 920 pixels
Height                      : 1 080 pixels
Display aspect ratio        : 16:9
Frame rate mode             : Constant
Frame rate                  : 23.976 (24000/1001) FPS
Color space                 : YUV
Chroma subsampling          : 4:2:0
Bit depth                   : 10 bits
Bits/(Pixel*Frame)          : 0.142
Stream size                 : 5.82 GiB (43%)
Title                       : | AC/DC : Live At Donington [1991] | 1080p | BDRip | x265 | PCM 5.1 @ 6912 Kbps | PCM 2.0 @ 2304 Kbps | Kira [SEV] |
Writing library             : x265 3.0_Au+32-a46ded2c1411:[Windows][MSVC 1921][64 bit] 10bit
Encoding settings           : cpuid=1111039 / frame-threads=2 / numa-pools=4 / wpp / no-pmode / no-pme / no-psnr / no-ssim / log-level=2 / input-csp=1 / input-res=1920x1080 / interlace=0 / total-frames=169872 / level-idc=0 / high-tier=1 / uhd-bd=0 / ref=5 / no-allow-non-conformance / no-repeat-headers / annexb / no-aud / no-hrd / info / hash=0 / no-temporal-layers / open-gop / min-keyint=23 / keyint=250 / gop-lookahead=0 / bframes=8 / b-adapt=2 / b-pyramid / bframe-bias=0 / rc-lookahead=100 / lookahead-slices=0 / scenecut=40 / radl=0 / no-splice / no-intra-refresh / ctu=64 / min-cu-size=8 / rect / amp / max-tu-size=32 / tu-inter-depth=3 / tu-intra-depth=3 / limit-tu=4 / rdoq-level=2 / dynamic-rd=0.00 / no-ssim-rd / signhide / no-tskip / nr-intra=0 / nr-inter=0 / no-constrained-intra / no-strong-intra-smoothing / max-merge=4 / limit-refs=1 / limit-modes / me=3 / subme=7 / merange=92 / temporal-mvp / weightp / weightb / no-analyze-src-pics / deblock=0:0 / sao / no-sao-non-deblock / rd=6 / early-skip / rskip / no-fast-intra / no-tskip-fast / no-cu-lossless / b-intra / no-splitrd-skip / rdpenalty=0 / psy-rd=1.50 / psy-rdoq=1.00 / no-rd-refine / no-lossless / cbqpoffs=0 / crqpoffs=0 / rc=abr / bitrate=7000 / qcomp=0.60 / qpstep=4 / stats-write=0 / stats-read=2 / cplxblur=20.0 / qblur=0.5 / ipratio=1.40 / pbratio=1.30 / aq-mode=3 / aq-strength=1.50 / cutree / zone-count=0 / no-strict-cbr / qg-size=32 / no-rc-grain / qpmax=69 / qpmin=0 / no-const-vbv / sar=0 / overscan=0 / videoformat=5 / range=0 / colorprim=2 / transfer=2 / colormatrix=2 / chromaloc=0 / display-window=0cll=0,0 / min-luma=0 / max-luma=1023 / log2-max-poc-lsb=8 / vui-timing-info / vui-hrd-info / slices=1 / no-opt-qp-pps / no-opt-ref-list-length-pps / no-multi-pass-opt-rps / scenecut-bias=0.05 / no-opt-cu-delta-qp / no-aq-motion / no-hdr / no-hdr-opt / no-dhdr10-opt / no-idr-recovery-sei / analysis-reuse-level=5 / scale-factor=0 / refine-intra=0 / refine-inter=0 / refine-mv=0 / refine-ctu-distortion=0 / no-limit-sao / ctu-info=0 / no-lowpass-dct / refine-analysis-type=0 / copy-pic=1 / max-ausize-factor=1.0 / no-dynamic-refine / no-single-sei / no-hevc-aq / no-svt / no-field / qp-adaptation-range=1.00
Language                    : English
Default                     : Yes
Forced                      : No
Audio #1
ID                          : 2
Format                      : PCM
Format settings             : Little / Signed
Codec ID                    : A_PCM/INT/LIT
Duration                    : 1 h 58 min
Bit rate mode               : Constant
Bit rate                    : 6 912 kb/s
Channel(s)                  : 6 channels
Sampling rate               : 48.0 kHz
Frame rate                  : 200.000 FPS (240 SPF)
Bit depth                   : 24 bits
Stream size                 : 5.70 GiB (42%)
Title                       : English Org BD PCM DD_5.1 @ 6912 Kbps
Language                    : English
Default                     : Yes
Forced                      : No
Audio #2
ID                          : 3
Format                      : PCM
Format settings             : Little / Signed
Codec ID                    : A_PCM/INT/LIT
Duration                    : 1 h 58 min
Bit rate mode               : Constant
Bit rate                    : 2 304 kb/s
Channel(s)                  : 2 channels
Sampling rate               : 48.0 kHz
Frame rate                  : 200.000 FPS (240 SPF)
Bit depth                   : 24 bits
Stream size                 : 1.90 GiB (14%)
Title                       : English Org BD PCM DD_2.0 @ 2304 Kbps
Language                    : English
Default                     : No
Forced                      : No
Audio #3
ID                          : 4
Format                      : AC-3
Format/Info                 : Audio Coding 3
Commercial name             : Dolby Digital
Codec ID                    : A_AC3
Duration                    : 1 h 58 min
Bit rate mode               : Constant
Bit rate                    : 192 kb/s
Channel(s)                  : 2 channels
Channel layout              : L R
Sampling rate               : 48.0 kHz
Frame rate                  : 31.250 FPS (1536 SPF)
Bit depth                   : 16 bits
Compression mode            : Lossy
Stream size                 : 162 MiB (1%)
Title                       : Commentary with Angus Young and Malcolm Young
Language                    : English
Service kind                : Complete Main
Default                     : No
Forced                      : No
Menu
00:00:00.000                : en:Chapter 01 : AC/DC : Thunderstruck
00:05:30.747                : en:Chapter 02 : AC/DC : Shoot to Thrill
00:11:06.874                : en:Chapter 03 : AC/DC : Back in Black
00:15:09.909                : en:Chapter 04 : AC/DC : Hell Ain't a Bad Place to Be
00:19:29.918                : en:Chapter 05 : AC/DC : Heatseeker
00:23:02.714                : en:Chapter 06 : AC/DC : Fire Your Guns
00:26:11.194                : en:Chapter 07 : AC/DC : Jailbreak
00:45:50.873                : en:Chapter 08 : AC/DC : The Jack
00:52:05.539                : en:Chapter 09 : AC/DC : Dirty Deeds Done Dirt Cheap
00:56:43.400                : en:Chapter 10 : AC/DC : Moneytalks
01:00:50.271                : en:Chapter 11 : AC/DC : Hells Bells
01:06:41.414                : en:Chapter 12 : AC/DC : High Voltage
01:15:51.880                : en:Chapter 13 : AC/DC : Whole Lotta Rosie
01:20:25.987                : en:Chapter 14 : AC/DC : You Shook Me All Night Long
01:24:01.036                : en:Chapter 15 : AC/DC : T.N.T.
01:27:26.115                : en:Chapter 16 : AC/DC : Let There Be Rock
01:44:46.280                : en:Chapter 17 : AC/DC : Highway to Hell
01:49:04.829                : en:Chapter 18 : AC/DC : For Those About to Rock (We Salute You)
01:55:26.127                : en:Chapter 19 : Credits

Source Media Information


Code:


General
Unique ID                   : 157713175705340970925402846473235695317 (0x76A673E8D5CB3A133666DBBD82CF86D5)
Complete name               : AC.DC.Live.at.Donington.1991.AVC.Blu-Ray.mkv
Format                      : Matroska
Format version              : Version 4
File size                   : 33.0 GiB
Duration                    : 1 h 58 min
Overall bit rate mode       : Variable
Overall bit rate            : 40.0 Mb/s
Encoded date                : UTC 2019-04-19 00:26:13
Writing application         : mkvmerge v33.0.0 ('A Little Bit of Madness') 64-bit
Writing library             : libebml v1.3.7 + libmatroska v1.5.0
Video
ID                          : 1
Format                      : AVC
Format/Info                 : Advanced Video Codec
Format profile              : [email protected]
Format settings             : CABAC / 2 Ref Frames
Format settings, CABAC      : Yes
Format settings, ReFrames   : 2 frames
Codec ID                    : V_MPEG4/ISO/AVC
Duration                    : 1 h 58 min
Bit rate mode               : Variable
Bit rate                    : 30.0 Mb/s
Width                       : 1 920 pixels
Height                      : 1 080 pixels
Display aspect ratio        : 16:9
Frame rate mode             : Constant
Frame rate                  : 23.976 (24000/1001) FPS
Color space                 : YUV
Chroma subsampling          : 4:2:0
Bit depth                   : 8 bits
Scan type                   : Progressive
Bits/(Pixel*Frame)          : 0.603
Stream size                 : 24.7 GiB (75%)
Default                     : Yes
Forced                      : No
Audio #1
ID                          : 2
Format                      : PCM
Format settings             : Little / Signed
Codec ID                    : A_PCM/INT/LIT
Duration                    : 1 h 58 min
Bit rate mode               : Constant
Bit rate                    : 2 304 kb/s
Channel(s)                  : 2 channels
Sampling rate               : 48.0 kHz
Frame rate                  : 200.000 FPS (240 SPF)
Bit depth                   : 24 bits
Stream size                 : 1.90 GiB (6%)
Language                    : English
Default                     : Yes
Forced                      : No
Audio #2
ID                          : 3
Format                      : AC-3
Format/Info                 : Audio Coding 3
Commercial name             : Dolby Digital
Codec ID                    : A_AC3
Duration                    : 1 h 58 min
Bit rate mode               : Constant
Bit rate                    : 640 kb/s
Channel(s)                  : 6 channels
Channel layout              : L R C LFE Ls Rs
Sampling rate               : 48.0 kHz
Frame rate                  : 31.250 FPS (1536 SPF)
Bit depth                   : 16 bits
Compression mode            : Lossy
Stream size                 : 541 MiB (2%)
Language                    : English
Service kind                : Complete Main
Default                     : No
Forced                      : No
Audio #3
ID                          : 4
Format                      : PCM
Format settings             : Little / Signed
Codec ID                    : A_PCM/INT/LIT
Duration                    : 1 h 58 min
Bit rate mode               : Constant
Bit rate                    : 6 912 kb/s
Channel(s)                  : 6 channels
Sampling rate               : 48.0 kHz
Frame rate                  : 200.000 FPS (240 SPF)
Bit depth                   : 24 bits
Stream size                 : 5.70 GiB (17%)
Language                    : English
Default                     : No
Forced                      : No
Audio #4
ID                          : 5
Format                      : AC-3
Format/Info                 : Audio Coding 3
Commercial name             : Dolby Digital
Codec ID                    : A_AC3
Duration                    : 1 h 58 min
Bit rate mode               : Constant
Bit rate                    : 192 kb/s
Channel(s)                  : 2 channels
Channel layout              : L R
Sampling rate               : 48.0 kHz
Frame rate                  : 31.250 FPS (1536 SPF)
Bit depth                   : 16 bits
Compression mode            : Lossy
Stream size                 : 162 MiB (0%)
Language                    : English
Service kind                : Complete Main
Default                     : No
Forced                      : No
Menu
00:00:00.000                : :Chapter 01
00:05:30.747                : :Chapter 02
00:11:06.874                : :Chapter 03
00:15:09.909                : :Chapter 04
00:19:29.918                : :Chapter 05
00:23:02.714                : :Chapter 06
00:26:11.194                : :Chapter 07
00:45:50.873                : :Chapter 08
00:52:05.539                : :Chapter 09
00:56:43.400                : :Chapter 10
01:00:50.271                : :Chapter 11
01:06:41.414                : :Chapter 12
01:15:51.880                : :Chapter 13
01:20:25.987                : :Chapter 14
01:24:01.036                : :Chapter 15
01:27:26.115                : :Chapter 16
01:44:46.280                : :Chapter 17
01:49:04.829                : :Chapter 18
01:55:26.127                : :Chapter 19

We have no issue with individuals posting or re-uploading our torrents on a platform we aren't on. However, if this is something you'd like to do, please do so in a 'as-is' format. We ask that you do not create a new torrent, include all descriptions you see above including the SEV logo, tags, notes and screenshots. If you'd like to become a permanent poster on a website we don't post to, feel free to get in contact with a Sublime Encoded Video member.
We are recruiting/training new members for SEV & seedbox providers as well as people to help out with subtitles.
As you already know, we deliver quality, so you know the standard.
If you're interested, feel free to contact any of the team members.

Comments:
Dont_Wory
Dont_Wory
A concert video with a commentary track. That's something I haven't seen before.
FEISKO
FEISKO
@Luneth Well here it is. Enjoy.
Related music:
Dil Kare Chu Che - Singh Is Bliing - Team truHD™ Full 1080p HEVC 2015 download Dil Kare Chu Che - Singh Is Bliing - Team truHD™ Full 1080p HEVC 2015
Video
Hindi
34.3 MB
4.0
/images/5/0/dil-kare-chu-che-singh-is-bliing-team-truhde284a2-full-1080p-hevc-2015.jpg
Aaj Raat Ka Scene - Jazbaa - Badshah & Shraddha Pandit - Team truHD™ Full 1080p HEVC 2015 download Aaj Raat Ka Scene - Jazbaa - Badshah & Shraddha Pandit - Team truHD™ Full 1080p HEVC 2015
Video
Hindi
38.0 MB
4.4
/images/5/0/aaj-raat-ka-scene-jazbaa-badshah-26-shraddha-pandit-team-truhde284a2-full-1080p-hevc-2015.jpg
AC/DC : Live At River Plate 1080p BDRip COMPLETE x265 PCM 5 1 Kira 2011 download AC/DC : Live At River Plate 1080p BDRip COMPLETE x265 PCM 5 1 Kira 2011
Concerts
English
13.0 GB
4.5
/images/5/1/ac2fdc-3a-live-at-river-plate-1080p-bdrip-complete-x265-pcm-5-1-kira-2011-.jpg
Mainu Ishq Da Lagya Rog - Tulsi Kumar - Khushali Kumar - Team truHD™ Full 1080p HEVC download Mainu Ishq Da Lagya Rog - Tulsi Kumar - Khushali Kumar - Team truHD™ Full 1080p HEVC
Video
Hindi
73.4 MB
4.6
/images/5/5/mainu-ishq-da-lagya-rog-tulsi-kumar-khushali-kumar-team-truhde284a2-full-1080p-hevc.jpg
Mar Jaayen - Loveshhuda - Team truHD™ CCT Full 1080p HEVC - truHD in 2015 download Mar Jaayen - Loveshhuda - Team truHD™ CCT Full 1080p HEVC - truHD in 2015
Video
Hindi
33.1 MB
4.7
/images/5/7/mar-jaayen-loveshhuda-team-truhde284a2-cct-full-1080p-hevc-truhd-in-2015.jpg
LINKIN PARK - Road To Revolution - Live At Milton Keynes 1080p BDRip x265 DTS-HD MA 5 1 Kira 2008 download LINKIN PARK - Road To Revolution - Live At Milton Keynes 1080p BDRip x265 DTS-HD MA 5 1 Kira 2008
Concerts
English
10.5 GB
4.3
/images/5/3/linkin-park-road-to-revolution-live-at-milton-keynes-1080p-bdrip-x265-dts-hd-ma-5-1-kira-2008-.jpg