Files 42316
» » Jimi Hendrix - Plays Berkeley BDRip-eNJoY-iT 2012
Language: English
Size: 1.1 GB
Votes: 124
Downloaded: 54
Category: Concerts
Format: MP3, FLAC
4.6

File list

Jimi Hendrix - Plays Berkeley (2012)BDRip-eNJoY-iT
  • Jimi Hendrix Plays Berkeley (2012) BDRip.avi (1.1 GB)
  • cd.jpg (62.7 KB)
  • info.nfo (3.5 KB)

Name: Jimi Hendrix - Plays Berkeley Year: 2012 Genre: Music, Concerts Quality: BDRip, 704x528, 2. 76 fps, AVI XVID 1955 kbps Duration: 64 min . A record of singer Jimi Hendrix' concert in Berkeley, California, in 1970.

A record of singer Jimi Hendrix' concert in Berkeley, California, in 1970. Get this torrent PLAY/STREAM TORRENT.

Live at Berkeley is a posthumous live album by American rock musician Jimi Hendrix. It documents his second performance at the Berkeley Community Theatre on May 30, 1970, and was released by MCA Records on September 16, 2003. After drummer Buddy Miles and Hendrix parted ways, Hendrix's manager, Michael Jeffery, wanted to reunite the original Experience. He announced their re-formation, and set up an interview with Rolling Stone magazine (with John Burks) on March 19, 1970.

Jimi Hendrix Plays Berkeley - Second Se. TS 72. MB. Jimi Hendrix - Bleeding Heart (1994)eNJoY-iT 30. Blowsight. If the content above is not authorized, please contact us via contactp2bt.

info erkeley-(2012)BDRip-eNJoY-iT Other. ch erkeley-(2012)BDRip-eNJoY-iT Music. co Jimi Hendrix - Plays Berkeley (2012)BDRip-eNJoY-iT Music. com Jimi Hendrix: Plays Berkeley (2012) BDRip-eNJoY-iT Music. am Jimi Hendrix - Plays Berkeley (2012)BDRip-eNJoY-iT Movies. eu Jimi Hendrix - Plays Berkeley (2012)BDRip-eNJoY-iT video.

Jimi Hendrix live Berkeley 1970- 1 show- novinka. Jimi Hendrix Stockholm 1969-color rare video.

what is it? Download. Downloading file in progress. Jimi Hendrix live Berkeley 1970- 1 show- novinka.

The Jimi Plays Berkeley film, documenting his performances at the Berkeley Community Theatre on May 30, 1970 .

The Jimi Plays Berkeley film, documenting his performances at the Berkeley Community Theatre on May 30, 1970, was about as haphazardly organized as most of the projects from the final year or two of his life were. It endured a post-directorial cut from Hendrix manager Mike Jeffery and, even with the insertion of some footage of period Berkeley rioting and protest, still clocked in at less than an hour.

Jimi Hendrix - Jimi Plays Berkeley (Blu-ray, 2012). Jimi Hendrix recorded live at the Berkeley Community Centre in 1970. Tracklist includes: 'Hear My Train A Comin', 'Purple Haze', 'I Don't Live Today', 'Lover Man' and 'Machine Gun'. Current slide {CURRENT SLIDE} of {TOTAL SLIDES}- Compare similar products. Jimi Hendrix - By Those Who Knew Him Best (DVD, 2004).

With Jimi Hendrix, Billy Cox, Mitch Mitchell. This documentary was made three years after Jimi Hendrix's untimely death

With Jimi Hendrix, Billy Cox, Mitch Mitchell. This documentary was made three years after Jimi Hendrix's untimely death. At the time it was an example of how a visual biography should be done, but some of the information in it needs.

This is a n musical experience you will enjoy over and over again.

This rousing world-famous concert is regarded by critics to be one of Jimi Hendrix's finest performances ever. Taking footage from two separate performances at the Berkeley Community Theater on May 30th, 1970, these incendiary shows help illustrate the student uprisings in Berkeley, by setting footage to the stunning backdrop of some awe-inspiring Hendrix material. Tracks include "Purple Haze," "Voodoo Child (Slight Return)," "Star Spangled Banner," "Hey Joe," and many others. This is a n musical experience you will enjoy over and over again.


Name: Jimi Hendrix - Plays Berkeley
Year: 2012
Genre: Music, Concerts
Quality: BDRip, 704x528, 23.976 fps, AVI XVID 1955 kbps
Duration: 64 min
Total Size: 1.09 GB
Audio: English, 48.0 kHz, AC-3 448 kbps, 6 ch
Jimi Hendrix - Plays Berkeley BDRip
Director: Peter Pilafian
Stars: Jimi Hendrix, Billy Cox, Mitch Mitchell
Country: USA
Production Co: Dor Jamm Productions, Douglas Music Video, Electric Lady Studios
A record of singer Jimi Hendrix' concert in Berkeley, California, in 1970.

Code:

General
Complete name : Jimi Hendrix - Plays Berkeley BDRipJimi Hendrix Plays Berkeley BDRip.avi
Format : AVI
Format/Info : Audio Video Interleave
File size : 1.09 GiB
Duration : 1 h 4 min
Overall bit rate : 2 412 kb/s
Movie name : Jimi Hendrix: Jimi Plays Berkeley BDRip
Director : Flynn82
Genre :
Writing application : VirtualDubMod 1.5.10.2 (build 2542/release)
Copyright : http://hqclub.net/
Comment : 16.08.2012
Video
ID : 0
Format : MPEG-4 Visual
Format profile : Advanced [email protected]
Format settings : BVOP1 / Custom Matrix
Format settings, BVOP : 1
Format settings, QPel : No
Format settings, GMC : No warppoints
Format settings, Matrix : Custom
Codec ID : XVID
Codec ID/Hint : XviD
Duration : 1 h 4 min
Bit rate : 1 955 kb/s
Width : 704 pixels
Height : 528 pixels
Display aspect ratio : 4:3
Frame rate : 23.976 (24000/1001) FPS
Color space : YUV
Chroma subsampling : 4:2:0
Bit depth : 8 bits
Scan type : Progressive
Compression mode : Lossy
Bits/(Pixel*Frame) : 0.219
Stream size : 908 MiB (81%)
Writing library : XviD 65
Audio
ID : 1
Format : AC-3
Format/Info : Audio Coding 3
Codec ID : 2000
Duration : 1 h 4 min
Bit rate mode : Constant
Bit rate : 448 kb/s
Channel(s) : 6 channels
Channel positions : Front: L C R, Side: L R, LFE
Sampling rate : 48.0 kHz
Frame rate : 31.250 FPS (1536 SPF)
Bit depth : 16 bits
Compression mode : Lossy
Stream size : 208 MiB (19%)
Alignment : Split accross interleaves
Interleave, duration : 42 ms (1.00 video frame)
Interleave, preload duration : 500 ms
Service kind : Complete Main
Related music:
Experience Hendrix - The Best of Jimi Hendrix FLAC Soup 1997 download Experience Hendrix - The Best of Jimi Hendrix FLAC Soup 1997
Lossless
English
494.4 MB
4.7
/images/5/7/experience-hendrix-the-best-of-jimi-hendrix-flac-soup-1997.jpg
Jimi Hendrix - Complete MP3 download Jimi Hendrix - Complete MP3
MP3
English
7.9 GB
4.3
/images/5/9/jimi-hendrix-complete-mp3.jpg
Jimi Hendrix - People, Hell and Angels FLAC Beolab1700 2013 download Jimi Hendrix - People, Hell and Angels FLAC Beolab1700 2013
Album
English
345.6 MB
4.4
/images/5/5/jimi-hendrix-people2c-hell-and-angels-flac-beolab1700-2013.jpg
CD Jimi Hendrix-Valleys Of Neptune 2010-PANiC download CD Jimi Hendrix-Valleys Of Neptune 2010-PANiC
MP3
Italian
117.1 MB
4.2
/images/5/7/cd-jimi-hendrix-valleys-of-neptune-2010-panic.jpg
The Jimi Hendrix Experience - 1967 Are You ExperiencedFLAC Vinyl.48Hz.24Bit download The Jimi Hendrix Experience - 1967 Are You ExperiencedFLAC Vinyl.48Hz.24Bit
Lossless
English
477.6 MB
4.7
/images/5/4/the-jimi-hendrix-experience-1967-are-you-experiencedflac-vinyl48hz24bit.jpg
Jimi Hendrix Experience - 4 Albums DJ All 320 collection download Jimi Hendrix Experience - 4 Albums DJ All 320 collection
MP3
English
867.1 MB
4.0
/images/5/3/jimi-hendrix-experience-4-albums-dj-all-320-collection.jpg
Jimi Hendrix - Loose Ends MP3 @ 320 download Jimi Hendrix - Loose Ends MP3 @ 320
Album
English
81.2 MB
4.0
/images/5/7/jimi-hendrix-loose-ends-mp3-40-320.jpg