Files 42316
» » Browse Music s Dj Casper - Where The Rabbit Hole Goes - ghostman °©° the group-Team
Language: English
Size: 43.5 MB
Votes: 987
Downloaded: 41
Category: Album
Format: MP3, FLAC
4.0

File list

  • Track 11 - Dj Casper - Where The Rabbit Hole Goes - Over Me.mp3 (4.3 MB)
  • Track 12 - Dj Casper - Where The Rabbit Hole Goes - Don't Do It To Me.mp3 (4.1 MB)
  • Track 02 - Dj Casper - Where The Rabbit Hole Goes - My Own Way.mp3 (4.1 MB)
  • Track 09 - Dj Casper - Where The Rabbit Hole Goes - All I Need.mp3 (3.9 MB)
  • Track 03 - Dj Casper - Where The Rabbit Hole Goes - i Stand Alone.mp3 (3.8 MB)
  • Track 07 - Dj Casper - Where The Rabbit Hole Goes - My Property.mp3 (3.7 MB)
  • Track 05 - Dj Casper - Where The Rabbit Hole Goes - Let Me Go.mp3 (3.6 MB)
  • Track 10 - Dj Casper - Where The Rabbit Hole Goes - Overdrive.mp3 (3.5 MB)
  • Track 04 - Dj Casper - Where The Rabbit Hole Goes - Fantasy.mp3 (3.3 MB)
  • Track 06 - Dj Casper - Where The Rabbit Hole Goes - Lose Control.mp3 (3.1 MB)
  • Track 01 - Dj Casper - Where The Rabbit Hole Goes - Can't Escpae.mp3 (3.1 MB)
  • Track 08 - Dj Casper - Where The Rabbit Hole Goes - Drowning.mp3 (2.9 MB)

cc, extratorrent ag, extratorrent.

cc, extratorrent ag, extratorrent.

org Dj Casper - Where The Rabbit Hole Goes. Be careful of what you download or face the consequences.

Details for this torrent. Dj Casper - Where The Rabbit Hole Goes. Uploaded: 2010-01-28 05:47:16 GMT.

All 4 songs featured in CSI: NY season 4 epsiode 5: Down the Rabbit Hole, with scene descriptions.

Pablo Bolivar - Probably Never Stereocalypse - Lace Star Buran - Teflon Chamber (Kris Davis Remix) Показать полность. imi Jules - Equinox Affkt & Upercent - Voler Volar D-Nox & Beckers feat. Santiago Franch - Summer Lights Bwana - Generation Nostalgia Kurt Baggeley - Winterland (Petar Dundov Remix) Nils Penner - Velcoro (Christian Prommer Remix) Bambook & Javier Orduña - Paloma (Quina Remix) Chaty, Tamez - Introspection (John Tejada Remix) Modular Project feat

See actions taken by the people who manage and post content. Page created – 1 April 2011.

[center][img="dj casper"]http://i47.tinypic.com/1zlr4hx.jpg[/img]
[img=info]http://i48.tinypic.com/214wgsy.jpg[/img]

General
Complete name : C:UsersCasperMusicDj Casper - Where The Rabbit Hole GoesTrack 01 - Dj Casper - Where The Rabbit Hole Goes - Can't Escpae.mp3
Format : MPEG Audio
File size : 3.08 MiB
Duration : 5mn 22s
Overall bit rate : 80.0 Kbps
Album : Where The Rabbit Hole Goes
Track name/Position : 2
Accompaniment : Dj Casper
Genre : Techno
Recorded date : 2010
Audio
Format : MPEG Audio
Format version : Version 2
Format profile : Layer 3
Format_Settings_Mode : Joint stereo / Intensity Stereo
Duration : 5mn 22s
Bit rate mode : Constant
Bit rate : 80.0 Kbps
Channel(s) : 2 channels
Sampling rate : 22.05 KHz
Resolution : 16 bits
Stream size : 3.07 MiB (100%)
General
Complete name : C:UsersCasperMusicDj Casper - Where The Rabbit Hole GoesTrack 02 - Dj Casper - Where The Rabbit Hole Goes - My Own Way.mp3
Format : MPEG Audio
File size : 4.14 MiB
Duration : 7mn 13s
Overall bit rate : 80.0 Kbps
Album : Where The Rabbit Hole Goes
Track name/Position : 3
Accompaniment : Dj Casper
Genre : Techno
Recorded date : 2010
Audio
Format : MPEG Audio
Format version : Version 2
Format profile : Layer 3
Format_Settings_Mode : Joint stereo / Intensity Stereo
Duration : 7mn 13s
Bit rate mode : Constant
Bit rate : 80.0 Kbps
Channel(s) : 2 channels
Sampling rate : 22.05 KHz
Resolution : 16 bits
Stream size : 4.13 MiB (100%)
General
Complete name : C:UsersCasperMusicDj Casper - Where The Rabbit Hole GoesTrack 03 - Dj Casper - Where The Rabbit Hole Goes - i Stand Alone.mp3
Format : MPEG Audio
File size : 3.76 MiB
Duration : 6mn 33s
Overall bit rate : 80.0 Kbps
Album : Where The Rabbit Hole Goes
Track name/Position : 4
Accompaniment : Dj Casper
Genre : Techno
Recorded date : 2010
Audio
Format : MPEG Audio
Format version : Version 2
Format profile : Layer 3
Format_Settings_Mode : Joint stereo / Intensity Stereo
Duration : 6mn 33s
Bit rate mode : Constant
Bit rate : 80.0 Kbps
Channel(s) : 2 channels
Sampling rate : 22.05 KHz
Resolution : 16 bits
Stream size : 3.76 MiB (100%)
General
Complete name : C:UsersCasperMusicDj Casper - Where The Rabbit Hole GoesTrack 04 - Dj Casper - Where The Rabbit Hole Goes - Fantasy.mp3
Format : MPEG Audio
File size : 3.33 MiB
Duration : 5mn 48s
Overall bit rate : 80.0 Kbps
Album : Where The Rabbit Hole Goes
Track name/Position : 5
Accompaniment : Dj Casper
Genre : Techno
Recorded date : 2010
Audio
Format : MPEG Audio
Format version : Version 2
Format profile : Layer 3
Format_Settings_Mode : Joint stereo / Intensity Stereo
Duration : 5mn 48s
Bit rate mode : Constant
Bit rate : 80.0 Kbps
Channel(s) : 2 channels
Sampling rate : 22.05 KHz
Resolution : 16 bits
Stream size : 3.32 MiB (100%)
General
Complete name : C:UsersCasperMusicDj Casper - Where The Rabbit Hole GoesTrack 05 - Dj Casper - Where The Rabbit Hole Goes - Let Me Go.mp3
Format : MPEG Audio
File size : 3.63 MiB
Duration : 6mn 20s
Overall bit rate : 80.0 Kbps
Album : Where The Rabbit Hole Goes
Track name/Position : 6
Accompaniment : Dj Casper
Genre : Techno
Recorded date : 2010
Audio
Format : MPEG Audio
Format version : Version 2
Format profile : Layer 3
Format_Settings_Mode : Joint stereo
Duration : 6mn 20s
Bit rate mode : Constant
Bit rate : 80.0 Kbps
Channel(s) : 2 channels
Sampling rate : 22.05 KHz
Resolution : 16 bits
Stream size : 3.63 MiB (100%)
General
Complete name : C:UsersCasperMusicDj Casper - Where The Rabbit Hole GoesTrack 06 - Dj Casper - Where The Rabbit Hole Goes - Lose Control.mp3
Format : MPEG Audio
File size : 3.08 MiB
Duration : 5mn 22s
Overall bit rate : 80.0 Kbps
Album : Where The Rabbit Hole Goes
Track name/Position : 7
Accompaniment : Dj Casper
Genre : Techno
Recorded date : 2010
Audio
Format : MPEG Audio
Format version : Version 2
Format profile : Layer 3
Format_Settings_Mode : Joint stereo / Intensity Stereo
Duration : 5mn 22s
Bit rate mode : Constant
Bit rate : 80.0 Kbps
Channel(s) : 2 channels
Sampling rate : 22.05 KHz
Resolution : 16 bits
Stream size : 3.07 MiB (100%)
General
Complete name : C:UsersCasperMusicDj Casper - Where The Rabbit Hole GoesTrack 07 - Dj Casper - Where The Rabbit Hole Goes - My Property.mp3
Format : MPEG Audio
File size : 3.75 MiB
Duration : 6mn 32s
Overall bit rate : 80.0 Kbps
Album : Where The Rabbit Hole Goes
Track name/Position : 8
Accompaniment : Dj Casper
Genre : Techno
Recorded date : 2010
Audio
Format : MPEG Audio
Format version : Version 2
Format profile : Layer 3
Format_Settings_Mode : Joint stereo
Duration : 6mn 32s
Bit rate mode : Constant
Bit rate : 80.0 Kbps
Channel(s) : 2 channels
Sampling rate : 22.05 KHz
Resolution : 16 bits
Stream size : 3.74 MiB (100%)
General
Complete name : C:UsersCasperMusicDj Casper - Where The Rabbit Hole GoesTrack 08 - Dj Casper - Where The Rabbit Hole Goes - Drowning.mp3
Format : MPEG Audio
File size : 2.95 MiB
Duration : 5mn 8s
Overall bit rate : 80.0 Kbps
Album : Where The Rabbit Hole Goes
Track name/Position : 9
Accompaniment : Dj Casper
Genre : Techno
Recorded date : 2010
Audio
Format : MPEG Audio
Format version : Version 2
Format profile : Layer 3
Format_Settings_Mode : Joint stereo / Intensity Stereo
Duration : 5mn 8s
Bit rate mode : Constant
Bit rate : 80.0 Kbps
Channel(s) : 2 channels
Sampling rate : 22.05 KHz
Resolution : 16 bits
Stream size : 2.94 MiB (100%)
General
Complete name : C:UsersCasperMusicDj Casper - Where The Rabbit Hole GoesTrack 09 - Dj Casper - Where The Rabbit Hole Goes - All I Need.mp3
Format : MPEG Audio
File size : 3.88 MiB
Duration : 6mn 46s
Overall bit rate : 80.0 Kbps
Album : Where The Rabbit Hole Goes
Track name/Position : 10
Accompaniment : Dj Casper
Genre : Techno
Recorded date : 2010
Audio
Format : MPEG Audio
Format version : Version 2
Format profile : Layer 3
Format_Settings_Mode : Joint stereo / Intensity Stereo
Duration : 6mn 46s
Bit rate mode : Constant
Bit rate : 80.0 Kbps
Channel(s) : 2 channels
Sampling rate : 22.05 KHz
Resolution : 16 bits
Stream size : 3.88 MiB (100%)
General
Complete name : C:UsersCasperMusicDj Casper - Where The Rabbit Hole GoesTrack 10 - Dj Casper - Where The Rabbit Hole Goes - Overdrive.mp3
Format : MPEG Audio
File size : 3.48 MiB
Duration : 6mn 4s
Overall bit rate : 80.0 Kbps
Album : Where The Rabbit Hole Goes
Track name/Position : 11
Accompaniment : Dj Casper
Genre : Techno
Recorded date : 2010
Audio
Format : MPEG Audio
Format version : Version 2
Format profile : Layer 3
Format_Settings_Mode : Joint stereo / Intensity Stereo
Duration : 6mn 4s
Bit rate mode : Constant
Bit rate : 80.0 Kbps
Channel(s) : 2 channels
Sampling rate : 22.05 KHz
Resolution : 16 bits
Stream size : 3.48 MiB (100%)
General
Complete name : C:UsersCasperMusicDj Casper - Where The Rabbit Hole GoesTrack 11 - Dj Casper - Where The Rabbit Hole Goes - Over Me.mp3
Format : MPEG Audio
File size : 4.31 MiB
Duration : 7mn 31s
Overall bit rate : 80.0 Kbps
Album : Where The Rabbit Hole Goes
Track name/Position : 12
Accompaniment : Dj Casper
Genre : Techno
Recorded date : 2010
Audio
Format : MPEG Audio
Format version : Version 2
Format profile : Layer 3
Format_Settings_Mode : Joint stereo / Intensity Stereo
Duration : 7mn 31s
Bit rate mode : Constant
Bit rate : 80.0 Kbps
Channel(s) : 2 channels
Sampling rate : 22.05 KHz
Resolution : 16 bits
Stream size : 4.31 MiB (100%)
General
Complete name : C:UsersCasperMusicDj Casper - Where The Rabbit Hole GoesTrack 12 - Dj Casper - Where The Rabbit Hole Goes - Don't Do It To Me.mp3
Format : MPEG Audio
File size : 4.15 MiB
Duration : 7mn 14s
Overall bit rate : 80.0 Kbps
Album : Where The Rabbit Hole Goes
Track name/Position : 13
Accompaniment : Dj Casper
Genre : Techno
Recorded date : 2010
Audio
Format : MPEG Audio
Format version : Version 2
Format profile : Layer 3
Format_Settings_Mode : Joint stereo / Intensity Stereo
Duration : 7mn 14s
Bit rate mode : Constant
Bit rate : 80.0 Kbps
Channel(s) : 2 channels
Sampling rate : 22.05 KHz
Resolution : 16 bits
Stream size : 4.14 MiB (100%)

[img=me] http://lookpic.com/i/482/HWPgOU4f.gif[/img]
Produced and Mixed by Me Dj Casper (aka Ghostman)
[img=group]http://leetleech.org/images/69773221966352511978.gif[/img]

Related music:
NAA MANCHI JESUS TELUGU MUSIC [email protected] com-NIKHIL download NAA MANCHI JESUS TELUGU MUSIC [email protected] com-NIKHIL
MP3
English
114.8 MB
4.5
/images/5/7/naa-manchi-jesus-telugu-music-by-loveislifefoelovers40gmail-com-nikhil.jpg
Natalia Kills - Trouble Leak CD-Rip Mp3 V0 NimitMak SilverRG 2013-Album download Natalia Kills - Trouble Leak CD-Rip Mp3 V0 NimitMak SilverRG 2013-Album
Album
English
105.8 MB
4.3
/images/5/2/natalia-kills-trouble-leak-cd-rip-mp3-v0-nimitmak-silverrg-2013-album.jpg
jack333 1037 Dreamer Rabbit Trance Remix 2017 download jack333 1037 Dreamer Rabbit Trance Remix 2017
MP3
English
33.3 MB
4.3
/images/5/4/jack333-1037-dreamer-rabbit-trance-remix-2017.jpg
The Chemical Brothers - Dig your own Hole [email protected] download The Chemical Brothers - Dig your own Hole [email protected]
Album
English
147.8 MB
4.8
/images/5/4/the-chemical-brothers-dig-your-own-hole-mp340320kbps-.jpg
Tum Hi Ho Hindi Music [email protected] com-NIKHIL Aashiqui_2 -Various Tunes download Tum Hi Ho Hindi Music [email protected] com-NIKHIL Aashiqui_2 -Various Tunes
MP3
Hindi
80.9 MB
4.7
/images/5/6/tum-hi-ho-hindi-music-by-loveislifeforlovers40gmail-com-nikhil-aashiqui2-various-tunes.jpg
VA - Entering Other Worlds Psydelic/Trance January 2010 320 kbps download VA - Entering Other Worlds Psydelic/Trance January 2010 320 kbps
Album
English
171.0 MB
4.4
/images/5/5/va-entering-other-worlds-psydelic2ftrance-january-2010-320-kbps.jpg
Amma Pole - 49 O - Single - Team CT download Amma Pole - 49 O - Single - Team CT
MP3
Other
9.3 MB
4.8
/images/5/8/amma-pole-49-o-single-team-ct.jpg
Delta Heavy - Down The Rabbit Hole 2012 download Delta Heavy - Down The Rabbit Hole 2012
MP3
English
73.6 MB
4.0
/images/5/3/delta-heavy-down-the-rabbit-hole-2012.jpg
Natalia Kills - Trouble 2013 Pop 320kbps CBR MP3 VX download Natalia Kills - Trouble 2013 Pop 320kbps CBR MP3 VX
Album
English
124.8 MB
4.9
/images/5/4/natalia-kills-trouble-2013-pop-320kbps-cbr-mp3-vx-.jpg