Files 42316
» » Bhagwant Maan - Kulfi Garma Garam 2 - Full Punjabi Movie Audio GOPI SAHI PDR
Language: Hindi
Size: 19.3 MB
Votes: 662
Downloaded: 96
Category: Album
Format: MP3, FLAC
4.6

File list

  • Kulfi Garma Garam -2 (Part-2).mp3 (9.9 MB)
  • Kulfi Garma Garam -2 (Part-1).mp3 (9.4 MB)

Bhagwant Maan - Kulfi Garma Garam 2 - Full Punjabi Movie Audio GOPI SAHI PDR, extratorrent, extratorrents, extratorrent. cc, extratorrent ag, extratorrent.

Bhagwant Maan - Kulfi Garma Garam 2 - Full Punjabi Movie Audio GOPI SAHI PDR, extratorrent, extratorrents, extratorrent.

Yoddha 2014 Punjabi DVDRip 720p GOPI SAHI PD. kv 91. M. Remember to include the full url in your complaint.

Details for this torrent . General Complete name : D:mp3new201310 octBhagwant Maan - Kulfi Garma Garam 2 - Full Punjabi Movie Audio GOPI SAHI PDRKulfi Garma Garam -2 (Part-1).

to Bh gw nt M n - Kulfi G rm G r m 2 - Full Punj bi Movie Audio GOPI SAHI PDR Music.

info OPI-SAHI-PDR Music. to Bh gw nt M n - Kulfi G rm G r m 2 - Full Punj bi Movie Audio GOPI SAHI PDR Music. com Bhagwant Maan: Kulfi Garma Garam 2: Full Punjabi Movie Audio G Other. am Bhagwant Maan Kulfi Garma Garam 2 Full Punjabi Movie Audio GOPI SAHI PDR Movies. ch OPI-SAHI-PDR Music.

Album: Kulfi Garma Garam . Your browser does not support the audio element.

Album: Kulfi Garma Garam 2. Artists: Bhagwant Mann. Tags:- Bhagwant Mann Kulfi Garma Garam 2 Kulfi Garma Garam -2 (Part-3) Songs Kulfi Garma Garam -2 (Part-3) Songs Download Bhagwant Mann.

DJPunjab Punjabi Singles Remix. Kulfi Garma Garam 2-Bhagwant Mann. Thank you for using djyoungster. Kulfi Garma Garam 2 Comedy Album Download. Kulfi Garma Garam 2 Songs. Kulfi Garma Garam 2 - Comedy songs uploaded on 0 Dec, 0 by Bhagwant Mann. Kulfi Garma Garam 2 Comedy Album More Details. to Bhagwant Maan - Kulfi Garma Garam 2 - Full Punjabi Movie Audio GOPI SAHI PDR Music.

Kulfi Garma Garam 2 - Bhagwant Mann mp3 song Releasing on 30 Sep,2013. Lyrics: Bhagwant Mann. Download Bhagwant Mann new song 2019, Kulfi Garma Garam 2 song download from Mrpunjab in High Quality. Kulfi Garma Garam -2 Album. Download Kulfi Garma Garam 2 Mp3 Songs. Title: Kulfi Garma Garam 2. Album: Kulfi Garma Garam -2. Singer: Bhagwant Mann, Jagtar Jaggi.



General
Complete name : D:mp3new201310 octBhagwant Maan - Kulfi Garma Garam 2 - Full Punjabi Movie Audio GOPI SAHI PDRKulfi Garma Garam -2 (Part-1).mp3
Format : MPEG Audio
File size : 9.41 MiB
Duration : 27mn 17s
Overall bit rate mode : Constant
Overall bit rate : 48.0 Kbps
Genre : Other
Cover : Yes / Yes
Cover type : Cover (front)
Cover MIME : image/jpeg / image/jpeg
Audio
Format : MPEG Audio
Format version : Version 1
Format profile : Layer 3
Duration : 27mn 25s
Bit rate mode : Constant
Bit rate : 48.0 Kbps
Channel count : 1 channel
Sampling rate : 44.1 KHz
Compression mode : Lossy
Stream size : 9.37 MiB (100%)
General
Complete name : D:mp3new201310 octBhagwant Maan - Kulfi Garma Garam 2 - Full Punjabi Movie Audio GOPI SAHI PDRKulfi Garma Garam -2 (Part-2).mp3
Format : MPEG Audio
File size : 9.94 MiB
Duration : 28mn 49s
Overall bit rate mode : Constant
Overall bit rate : 48.0 Kbps
Genre : Other
Cover : Yes / Yes
Cover type : Cover (front)
Cover MIME : image/jpeg / image/jpeg
Audio
Format : MPEG Audio
Format version : Version 1
Format profile : Layer 3
Duration : 28mn 57s
Bit rate mode : Constant
Bit rate : 48.0 Kbps
Channel count : 1 channel
Sampling rate : 44.1 KHz
Compression mode : Lossy
Stream size : 9.90 MiB (100%)

Related music:
NAA MANCHI JESUS TELUGU MUSIC [email protected] com-NIKHIL download NAA MANCHI JESUS TELUGU MUSIC [email protected] com-NIKHIL
MP3
English
114.8 MB
4.5
/images/5/7/naa-manchi-jesus-telugu-music-by-loveislifefoelovers40gmail-com-nikhil.jpg
Rihanna - As Real As You & Me 320kbps from the The “Home” movie soundtrack download Rihanna - As Real As You & Me 320kbps from the The “Home” movie soundtrack
MP3
English
8.5 MB
4.1
/images/5/6/rihanna-as-real-as-you-26-me-320kbps-from-the-the-e2809chomee2809d-movie-soundtrack.jpg
Tum Hi Ho Hindi Music [email protected] com-NIKHIL Aashiqui_2 -Various Tunes download Tum Hi Ho Hindi Music [email protected] com-NIKHIL Aashiqui_2 -Various Tunes
MP3
Hindi
80.9 MB
4.7
/images/5/6/tum-hi-ho-hindi-music-by-loveislifeforlovers40gmail-com-nikhil-aashiqui2-various-tunes.jpg
66 PUNJABI VIDEO SONGS HD releasing IN April 2014 GOPI SAHI download 66 PUNJABI VIDEO SONGS HD releasing IN April 2014 GOPI SAHI
Video
Hindi
1.1 GB
4.2
/images/5/2/66-punjabi-video-songs-hd-releasing-in-april-2014-gopi-sahi.jpg
59 PUNJABI VIDEO SONGS HD releasing IN March 2014 GOPI SAHI download 59 PUNJABI VIDEO SONGS HD releasing IN March 2014 GOPI SAHI
Video
Hindi
1,017.3 MB
4.7
/images/5/7/59-punjabi-video-songs-hd-releasing-in-march-2014-gopi-sahi.jpg
95 PUNJABI VIDEO SONGS HD releasing IN MAY 2014 GOPI SAHI download 95 PUNJABI VIDEO SONGS HD releasing IN MAY 2014 GOPI SAHI
Video
Hindi
1.9 GB
4.8
/images/5/4/95-punjabi-video-songs-hd-releasing-in-may-2014-gopi-sahi.jpg
Eminem - Phenomenal 320kbps mp3 from Southpaw movie Sountrack download Eminem - Phenomenal 320kbps mp3 from Southpaw movie Sountrack
MP3
English
10.8 MB
4.0
/images/5/5/eminem-phenomenal-320kbps-mp3-from-southpaw-movie-sountrack.jpg