Files 42316
» » Michel Petrucciani - Michel plays Petrucciani Flac Cue 1988
Language: English
Size: 229.1 MB
Votes: 516
Downloaded: 19
Category: Album
Format: MP3, FLAC
4.6

File list

  • 09 - Brazilian Suite.flac (35.7 MB)
  • 02 - One for Us.flac (29.9 MB)
  • 07 - It's a Dance.flac (28.0 MB)
  • 08 - La Champagne.flac (27.3 MB)
  • 05 - Mr. K. J..flac (25.7 MB)
  • 01 - She Did It Again.flac (24.3 MB)
  • 03 - Sahara.flac (20.0 MB)
  • 04 - 13th.flac (19.4 MB)
  • 06 - One Night at Ken and Jessica's.flac (18.8 MB)
  • Michel Petrucciani - Michel plays Petrucciani.jpg (18.9 KB)
  • Michel Petrucciani - Michel plays Petrucciani.log (8.5 KB)
  • Michel plays Petrucciani.cue (1.6 KB)
  • Michel Petrucciani - Michel plays Petrucciani.m3u (0.2 KB)

Now playing: Ed Sheeran I Don't Care. Радио Мята - The Hits Channel.

Michel Plays Petrucciani is a jazz album by Michel Petrucciani, Blue Note catalogue number CDP 7 48679 2. The album was recorded during two sets of sessions. The album was recorded during two sets of sessions, with tracks 1-5 recorded on 24 September 1987 with Gary Peacock and Roy Haynes, and the remaining tracks over 9 and 10 December of the same year with Eddie Gómez and Al Foster. Michel Petrucciani - Piano. Gary Peacock - Bass, tracks 1-5. Roy Haynes - Drums, tracks 1-5. Eddie Gómez - Bass, tracks 6-9.

Michael Petrucciani, Dominique Di Piazza, Victor Jones, Michel Petrucciani, Philippe Petrucciani, François Quillet . Quartet (with Michel Petrucciani). Steve Grossman, Michael Petrucciani. Michel Plays Petrucciani.

Michael Petrucciani, Dominique Di Piazza, Victor Jones, Michel Petrucciani, Philippe Petrucciani, François Quillet, Dominique Di Piazza, Victor Jones, François Quillet, Philippe Petrucciani. Original Album Classics. Michel Petrucciani & NHØP. Michael Petrucciani, Niels-Henning Ørsted Pedersen. Triple Best Of Petrucciani. The Complete Dreyfus Jazz Recordings (L'Intégrale).

Michel Plays Petrucciani - Michael Petrucciani. Открывайте новую музыку каждый день. Лента с персональными рекомендациями и музыкальными новинками, радио, подборки на любой вкус, удобное управление своей коллекцией. Миллионы композиций бесплатно и в хорошем качестве.

Michel Plays Petrucciani. Michel Petrucciani - Michel Plays Petrucciani.

March 2017, 14: 14 Michel e With Duke Used drive : TSSTcorpCDDVDW SH-224FB Adapter: 1 ID: 0 Read mode : Secure Utilize accurate stream : Yes Defeat audio cache : Yes Make use of C2 pointers.

March 2017, 14: 14 Michel e With Duke Used drive : TSSTcorpCDDVDW SH-224FB Adapter: 1 ID: 0 Read mode : Secure Utilize accurate stream : Yes Defeat audio cache : Yes Make use of C2 pointers : No Read offset correction : 6 Overread into Lead-In and Lead-Out : No Fill up missing offset samples with silence : Yes Delete leading and trailing silent blocks . Extraction speed . X Track quality 9. % Test CRC 89149298 Copy CRC 89149298 Accurately ripped (confidence 2) FB618D57 (AR v1) Copy OK All tracks accurately ripped No errors occurred End of status report Log checksum.

Michel Petrucciani – Collection, 27 Albums & 2 Box Sets. flac" WAVE TRACK 01 AUDIO TITLE "Pasolini" PERFORMER "Michel Petrucciani Trio" PREGAP 00:00:33 INDEX 01 00:00:00 FILE "02. Very Early. flac" WAVE TRACK 02 AUDIO TITLE "Very Early" PERFORMER "Michel Petrucciani Trio" INDEX 01 00:00:00 FILE "03. Estate

Michel Petrucciani - Little Peace in C for U So What - Best Of, 2004 03:04. Michel Petrucciani - Santa Barbara Days Of Wine And Roses - The Owl Years 1981-1985, 2000 06:46. Michel Petrucciani - Besame Mucho The Complete Dreyfus Jazz Recordings (L'Intégrale), 2008 03:14.

Michel Petrucciani - Little Peace in C for U So What - Best Of, 2004 03:04. Michel Petrucciani - Love Letter The Complete Dreyfus Jazz Recordings (L'Intégrale), 2008 09:31. Michel Petrucciani - Hidden Joy The Complete Dreyfus Jazz Recordings (L'Intégrale), 2008 02:46. Bob Malach, Michel Petrucciani - My Bebop Tune (Take 3) Conversations with Michel, 2000 04:17.

Michel Petrucciani - Michel plays Petrucciani [Flac Cue] [Tntvillage.Scambioetico]
Michel Petrucciani - Michel plays Petrucciani

.: Dati Album :.
Titolo: Michel plays Petrucciani
Anno: 1988
Genere: Jazz
Etichetta: Blue Note
.: Tracklist :.
01 "She Did It Again" - 4:03
02 "One For Us" - 5:09
03 "Sahara" - 4:14
04 "13th" - 4:05
05 "Mr. K.J." - 4:19
06 "One Night At Ken And Jessica's" - 3:08
07 "It's A Dance" - 6:16
08 "La Champagne" - 6:14
09 "Brazilian Suite" - 6:24
.: Recensione :.
Il disco contiene tutti brani composti da Petrucciani, da cui il titolo dell’album. È stato registrato in due differenti sessioni con team diversi: si tratta di due diversi trio di composizione classica (pianoforte – contrabbasso – batteria) con l’aggiunta di un quarto componente in alcuni pezzi.
La prima parte, registrata nel settembre 1987, vede accanto a Petrucciani due grandi della storia del jazz, il bassista Gary Peacock, noto anche per la sua partecipazione al trio di Keith Jarrett, e il batterista Roy Haynes, che ha collaborato con molti artisti nell’arco di quattro decadi. Questa prima parte contiene brani dalla ritmica piuttosto marcata, in chiave hard-swing. Nel secondo pezzo dà il suo apporto anche il chitarrista John Abercrombie.
Nella seconda parte, Petrucciani esegue brani più soft, supportato da una ritmica di tipo più convenzionale, eseguita da due compagni meno famosi dei precedenti, cui si aggiungono in un brano ancora Abercrombie ed in un altro il percussionista Steve Thornton.
Petrucciani dedicò questo album ad Eugenia Morrison, la donna con cui convisse per cinque anni e che, come per altre donne, lui chiamava impropriamente “moglie”, nonostante non l’abbia mai sposata.
.: Dati Tecnici :.
[spoiler]Exact Audio Copy V1.0 beta 3 from 29. August 2011
EAC extraction logfile from 22. June 2013, 20:08
Michel Petrucciani / Michel plays Petrucciani
Used drive : SlimtypeDVD A DS8A3S Adapter: 0 ID: 1
Read mode : Secure
Utilize accurate stream : Yes
Defeat audio cache : Yes
Make use of C2 pointers : No
Read offset correction : 6
Overread into Lead-In and Lead-Out : No
Fill up missing offset samples with silence : Yes
Delete leading and trailing silent blocks : No
Null samples used in CRC calculations : Yes
Used interface : Native Win32 interface for Win NT & 2000
Gap handling : Appended to previous track
Used output format : Internal WAV Routines
Sample format : 44.100 Hz; 16 Bit; Stereo
TOC of the extracted CD
Track | Start | Length | Start sector | End sector
-
1 | 0:00.33 | 4:03.35 | 33 | 18292
2 | 4:03.68 | 5:09.37 | 18293 | 41504
3 | 9:13.30 | 4:14.30 | 41505 | 60584
4 | 13:27.60 | 4:04.43 | 60585 | 78927
5 | 17:32.28 | 4:18.40 | 78928 | 98317
6 | 21:50.68 | 3:08.25 | 98318 | 112442
7 | 24:59.18 | 6:15.62 | 112443 | 140629
8 | 31:15.05 | 6:14.35 | 140630 | 168714
9 | 37:29.40 | 6:24.15 | 168715 | 197529
Track 1
Filename 01 - She Did It Again.wav
Pre-gap length 0:00:02.33
Peak level 93.0 %
Extraction speed 2.7 X
Track quality 100.0 %
Test CRC 41B3E606
Copy CRC 41B3E606
Accurately ripped (confidence 2) [E58D07E5] (AR v2)
Copy OK
Track 2
Filename 02 - One for Us.wav
Pre-gap length 0:00:00.65
Peak level 78.2 %
Extraction speed 3.1 X
Track quality 100.0 %
Test CRC 7A9CB21E
Copy CRC 7A9CB21E
Accurately ripped (confidence 2) [A13033A2] (AR v2)
Copy OK
Track 3
Filename 03 - Sahara.wav
Pre-gap length 0:00:02.40
Peak level 90.9 %
Extraction speed 3.4 X
Track quality 100.0 %
Test CRC ABDA025D
Copy CRC ABDA025D
Accurately ripped (confidence 2) [00AA5A81] (AR v2)
Copy OK
Track 4
Filename 04 - 13th.wav
Pre-gap length 0:00:02.42
Peak level 80.9 %
Extraction speed 3.6 X
Track quality 100.0 %
Test CRC E250C964
Copy CRC E250C964
Accurately ripped (confidence 2) [06005850] (AR v2)
Copy OK
Track 5
Filename 05 - Mr. K. J..wav
Pre-gap length 0:00:00.40
Peak level 93.0 %
Extraction speed 3.9 X
Track quality 100.0 %
Test CRC E8795BA3
Copy CRC E8795BA3
Accurately ripped (confidence 2) [5021C452] (AR v2)
Copy OK
Track 6
Filename 06 - One Night at Ken and Jessica's.wav
Pre-gap length 0:00:00.35
Peak level 75.7 %
Extraction speed 3.8 X
Track quality 100.0 %
Test CRC 1B3D9247
Copy CRC 1B3D9247
Accurately ripped (confidence 2) [B6CC1FE9] (AR v2)
Copy OK
Track 7
Filename 07 - It's a Dance.wav
Pre-gap length 0:00:01.18
Peak level 70.8 %
Extraction speed 4.0 X
Track quality 99.9 %
Test CRC 9ED187F2
Copy CRC 9ED187F2
Accurately ripped (confidence 2) [B6F5B6B7] (AR v2)
Copy OK
Track 8
Filename 08 - La Champagne.wav
Pre-gap length 0:00:00.37
Peak level 82.8 %
Extraction speed 4.2 X
Track quality 99.9 %
Test CRC 84952D48
Copy CRC 84952D48
Accurately ripped (confidence 2) [53C5B912] (AR v2)
Copy OK
Track 9
Filename 09 - Brazilian Suite.wav
Pre-gap length 0:00:00.30
Peak level 93.8 %
Extraction speed 5.0 X
Track quality 100.0 %
Test CRC F70D0FA6
Copy CRC F70D0FA6
Accurately ripped (confidence 2) [F1160591] (AR v2)
Copy OK
All tracks accurately ripped
No errors occurred
End of status report
==== Log checksum DFED0FD0A6AFC4FA41E8E679FAFDD58DB5A08FB43C27E5BDAB70C0D929F69CA6 ====
[/spoiler]
Visit http://www.tntvillage.scambioetico.org/

Related music:
Jean-Michel Jarre - Essential Recollection DJ 2015 320 download Jean-Michel Jarre - Essential Recollection DJ 2015 320
MP3
English
157.2 MB
4.5
/images/5/0/jean-michel-jarre-essential-recollection-dj-2015-320.jpg
Michel Petrucciani Collection part 2 TNT JazzPlanet 1992 - 1997 download Michel Petrucciani Collection part 2 TNT JazzPlanet 1992 - 1997
MP3
English
2.0 GB
4.2
/images/5/4/michel-petrucciani-collection-part-2-tnt-jazzplanet-1992-1997.jpg
Jean Michel Jarre - The Very Best - TFM download Jean Michel Jarre - The Very Best - TFM
Lossless
English
572.8 MB
4.9
/images/5/9/jean-michel-jarre-the-very-best-tfm.jpg
Michel Petrucciani - So What JazzPlanet Best Of Eac Flac Cue UF download Michel Petrucciani - So What JazzPlanet Best Of Eac Flac Cue UF
Lossless
English
398.5 MB
4.3
/images/5/6/michel-petrucciani-so-what-jazzplanet-best-of-eac-flac-cue-uf.jpg
Jean-Michel Jarre - Planet Jarre -Version 320kbps download Jean-Michel Jarre - Planet Jarre -Version 320kbps
MP3
English
396.2 MB
4.1
/images/5/8/jean-michel-jarre-planet-jarre-version-320kbps-.jpg
Jean Michel Jarre - Greatest Hits 2008-MFA 2CD download Jean Michel Jarre - Greatest Hits 2008-MFA 2CD
MP3
English
361.9 MB
4.2
/images/5/2/jean-michel-jarre-greatest-hits-2008-mfa-2cd.jpg
Jean Michel Jarre - The Essential ALAC 1983 download Jean Michel Jarre - The Essential ALAC 1983
Album
English
305.7 MB
4.2
/images/5/1/jean-michel-jarre-the-essential-alac-1983.jpg
Jean-Michel Jarre - Oxygene, Mp3 320 kbps download Jean-Michel Jarre - Oxygene, Mp3 320 kbps
Album
English
90.9 MB
4.3
/images/5/1/jean-michel-jarre-oxygene2c-mp3-320-kbps-.jpg
Jean-Michel Jarre - Chronologie Flac Eng Remastered TNTvillage download Jean-Michel Jarre - Chronologie Flac Eng Remastered TNTvillage
Lossless
English
286.3 MB
4.8
/images/5/4/jean-michel-jarre-chronologie-flac-eng-remastered-tntvillage.jpg