Files 42316
» » Modena City Ramblers - Dopo il lungo inverno FLAC TNT-Village
Language: Italian
Size: 448.3 MB
Votes: 963
Downloaded: 13
Category: Album
Format: MP3, FLAC
4.0

File list

  • 01 Prologo.flac (2.7 MB)
  • 02 Quel Giorno a Primavera.flac (22.5 MB)
  • 03 La Musica del Tempo.flac (32.0 MB)
  • 04 Tota la Sira.flac (31.1 MB)
  • 05 OLtre la Guerra e la Paura.flac (30.6 MB)
  • 06 Le Strade di Crawford.flac (29.3 MB)
  • 07 Western Union.flac (29.8 MB)
  • 08 Mia Dolce Rivoluzionaria.flac (27.6 MB)
  • 09 Il Paese delle Meraviglie.flac (39.5 MB)
  • 10 Intermezzo.flac (2.9 MB)
  • 11 I Prati di Bismantova.flac (24.1 MB)
  • 12 Mala Sirena.flac (24.6 MB)
  • 13 Mama Africa.flac (22.2 MB)
  • 14 Rismagro.flac (22.8 MB)
  • 15 La stagioun di Delinqueint.flac (27.7 MB)
  • 16 Il Treno dei Folli.flac (24.1 MB)
  • 17 Come Nuvole Lontane.flac (26.0 MB)
  • 18 Stranger in Birkenau.flac (26.2 MB)
  • 19 Epilogo.flac (2.7 MB)
  • Dopo il Lungo Inverno.cue (2.6 KB)

Modena City Ramblers (also known as . is an Italian folk band founded in 1991. 2006 – Dopo il lungo inverno. 2008 – Bella ciao - Italian Combat Folk for the Masses.

Modena City Ramblers (also known as . Their music is heavily influenced by Celtic themes, and can be compared to folk rock music. The band has sold over 500,000 albums. The Modena City Ramblers were formed in 1991 by a group of friends that wanted to play traditional Irish music. The first to join were Alberto Morselli, Giovanni Rubbiani and Alberto Cottica (still in Lontano da dove), Chris Dennis (formerly a member of Nomadi), Filippo Chieli, Franco D'Aniello and Luciano Gaetani from 'Abazia dei folli.

Exclusive discount for Prime members. Sample this album Artist (Sample).

Il paese delle meraviglie, 05:46. Savage Garden Truly Madly Deeply.

to Modena City Ramblers - Dopo il lungo inverno Music Album. flac2,780 KB. Dopo il Lungo Inverno. You cannot download any of those files from here.

All Music Audio books Sound clips FLAC Other Movies Movies DVDR Music videos Movie clips TV shows Handheld HD. .

All Music Audio books Sound clips FLAC Other Movies Movies DVDR Music videos Movie clips TV shows Handheld HD - Movies HD - TV shows 3D Other Windows Mac UNIX Handheld IOS (iPad/iPhone) Android Other OS PC Mac PSx XBOX360 Wii Handheld IOS (iPad/iPhone) Android Other Movies Movies DVDR Pictures Games HD - Movies Movie clips Other E-books Comics Pictures Covers. php?showtopic 325020.

Artist: Modena City Ramblers. Album: Dopo il lungo inverno. Modena City Ramblers - I prati di bismantova 03:51. Modena City Ramblers: best 2 tracks. Modena City Ramblers - Clandestino Tracce Clandestine, 2015 04:41. Artist: Modena City Ramblers.

Dopo il lungo inverno Q&A. More Modena City Ramblers albums. Show all albums by Modena City Ramblers.

Modena City Ramblers. Modena City Ramblers.

Exact Audio Copy V1.1 from 23. June 2015
EAC extraction logfile from 16. February 2016, 12:36
Modena City Ramblers / Dopo il Lungo Inverno
Used drive : PLEXTOR DVDR PX-891SA Adapter: 1 ID: 0
Read mode : Secure
Utilize accurate stream : Yes
Defeat audio cache : Yes
Make use of C2 pointers : No
Read offset correction : 6
Overread into Lead-In and Lead-Out : No
Fill up missing offset samples with silence : Yes
Delete leading and trailing silent blocks : Yes
Null samples used in CRC calculations : Yes
Used interface : Native Win32 interface for Win NT & 2000
Gap handling : Appended to previous track
Used output format : User Defined Encoder
Selected bitrate : 1024 kBit/s
Quality : High
Add ID3 tag : Yes
Command line compressor : C:Program Files (x86)Exact Audio CopyFlacflac.exe
Additional command line options : -8 -V -T "Artist=%artist%" -T "Title=%title%" -T "Album=%albumtitle%" -T "DATE=%year%" -T "TRACKNUMBER=%tracknr%" -T "Genre=%genre%" -T "ALBUMARTIST=%albumartist%" -T "ALBUM ARTIST=%albumartist%" -T "COMMENT=EAC Secure Mode, Test & Copy, AccurateRip, FLAC -8" %source%
TOC of the extracted CD
Track | Start | Length | Start sector | End sector
-
1 | 0:00.00 | 0:30.61 | 0 | 2310
2 | 0:30.61 | 3:10.15 | 2311 | 16575
3 | 3:41.01 | 5:34.53 | 16576 | 41678
4 | 9:15.54 | 4:12.40 | 41679 | 60618
5 | 13:28.19 | 4:38.74 | 60619 | 81542
6 | 18:07.18 | 4:15.64 | 81543 | 100731
7 | 22:23.07 | 4:31.18 | 100732 | 121074
8 | 26:54.25 | 3:54.10 | 121075 | 138634
9 | 30:48.35 | 5:46.18 | 138635 | 164602
10 | 36:34.53 | 0:34.55 | 164603 | 167207
11 | 37:09.33 | 3:51.39 | 167208 | 184571
12 | 41:00.72 | 4:08.02 | 184572 | 203173
13 | 45:08.74 | 3:05.02 | 203174 | 217050
14 | 48:14.01 | 3:34.60 | 217051 | 233160
15 | 51:48.61 | 4:07.65 | 233161 | 251750
16 | 55:56.51 | 3:27.10 | 251751 | 267285
17 | 59:23.61 | 4:14.56 | 267286 | 286391
18 | 63:38.42 | 4:12.53 | 286392 | 305344
19 | 67:51.20 | 0:43.61 | 305345 | 308630
Track 1
Filename E:zzzMCR - Dopo il Lungo Inverno [Flac Cue]1 Prologo.wav
Pre-gap length 0:00:02.00
Peak level 58.8 %
Extraction speed 2.7 X
Track quality 100.0 %
Test CRC 57B5E193
Copy CRC 57B5E193
Copy OK
Track 2
Filename E:zzzMCR - Dopo il Lungo Inverno [Flac Cue]2 Quel Giorno a Primavera.wav
Peak level 97.7 %
Extraction speed 4.2 X
Track quality 99.9 %
Test CRC 374C0176
Copy CRC 374C0176
Copy OK
Track 3
Filename E:zzzMCR - Dopo il Lungo Inverno [Flac Cue]3 La Musica del Tempo.wav
Peak level 97.7 %
Extraction speed 6.3 X
Track quality 100.0 %
Test CRC CBEBB122
Copy CRC CBEBB122
Copy OK
Track 4
Filename E:zzzMCR - Dopo il Lungo Inverno [Flac Cue]4 Tota la Sira.wav
Peak level 97.7 %
Extraction speed 6.8 X
Track quality 100.0 %
Test CRC E86285CE
Copy CRC E86285CE
Copy OK
Track 5
Filename E:zzzMCR - Dopo il Lungo Inverno [Flac Cue]5 OLtre la Guerra e la Paura.wav
Peak level 97.7 %
Extraction speed 7.3 X
Track quality 100.0 %
Test CRC B480CC41
Copy CRC B480CC41
Copy OK
Track 6
Filename E:zzzMCR - Dopo il Lungo Inverno [Flac Cue]6 Le Strade di Crawford.wav
Peak level 97.7 %
Extraction speed 7.7 X
Track quality 100.0 %
Test CRC C64136CE
Copy CRC C64136CE
Copy OK
Track 7
Filename E:zzzMCR - Dopo il Lungo Inverno [Flac Cue]7 Western Union.wav
Peak level 97.7 %
Extraction speed 6.9 X
Track quality 99.9 %
Test CRC 5498E607
Copy CRC 5498E607
Copy OK
Track 8
Filename E:zzzMCR - Dopo il Lungo Inverno [Flac Cue]8 Mia Dolce Rivoluzionaria.wav
Peak level 97.7 %
Extraction speed 8.4 X
Track quality 100.0 %
Test CRC F8CF6585
Copy CRC F8CF6585
Copy OK
Track 9
Filename E:zzzMCR - Dopo il Lungo Inverno [Flac Cue]9 Il Paese delle Meraviglie.wav
Peak level 97.7 %
Extraction speed 8.0 X
Track quality 99.9 %
Test CRC 9B8B0FAF
Copy CRC 9B8B0FAF
Copy OK
Track 10
Filename E:zzzMCR - Dopo il Lungo Inverno [Flac Cue]10 Intermezzo.wav
Peak level 50.6 %
Extraction speed 5.1 X
Track quality 100.0 %
Test CRC 97FFBBF4
Copy CRC 97FFBBF4
Copy OK
Track 11
Filename E:zzzMCR - Dopo il Lungo Inverno [Flac Cue]11 I Prati di Bismantova.wav
Peak level 97.7 %
Extraction speed 9.3 X
Track quality 100.0 %
Test CRC B6C8DB26
Copy CRC B6C8DB26
Copy OK
Track 12
Filename E:zzzMCR - Dopo il Lungo Inverno [Flac Cue]12 Mala Sirena.wav
Peak level 97.7 %
Extraction speed 9.7 X
Track quality 100.0 %
Test CRC 4252E250
Copy CRC 4252E250
Copy OK
Track 13
Filename E:zzzMCR - Dopo il Lungo Inverno [Flac Cue]13 Mama Africa.wav
Peak level 97.7 %
Extraction speed 9.5 X
Track quality 100.0 %
Test CRC 10E7737E
Copy CRC 10E7737E
Copy OK
Track 14
Filename E:zzzMCR - Dopo il Lungo Inverno [Flac Cue]14 Rismagro.wav
Peak level 97.7 %
Extraction speed 8.0 X
Track quality 99.9 %
Test CRC 462C238F
Copy CRC 462C238F
Copy OK
Track 15
Filename E:zzzMCR - Dopo il Lungo Inverno [Flac Cue]15 La stagioun di Delinqueint.wav
Peak level 97.7 %
Extraction speed 10.4 X
Track quality 100.0 %
Test CRC 92684900
Copy CRC 92684900
Copy OK
Track 16
Filename E:zzzMCR - Dopo il Lungo Inverno [Flac Cue]16 Il Treno dei Folli.wav
Peak level 97.7 %
Extraction speed 8.3 X
Track quality 99.9 %
Test CRC 8BA09E03
Copy CRC 8BA09E03
Copy OK
Track 17
Filename E:zzzMCR - Dopo il Lungo Inverno [Flac Cue]17 Come Nuvole Lontane.wav
Peak level 97.7 %
Extraction speed 11.1 X
Track quality 100.0 %
Test CRC BC5F43F3
Copy CRC BC5F43F3
Copy OK
Track 18
Filename E:zzzMCR - Dopo il Lungo Inverno [Flac Cue]18 Stranger in Birkenau.wav
Peak level 97.7 %
Extraction speed 11.3 X
Track quality 100.0 %
Test CRC 8125AA3A
Copy CRC 8125AA3A
Copy OK
Track 19
Filename E:zzzMCR - Dopo il Lungo Inverno [Flac Cue]19 Epilogo.wav
Peak level 51.4 %
Extraction speed 3.9 X
Track quality 99.7 %
Test CRC 5D40B357
Copy CRC 5D40B357
Copy OK
No errors occurred
End of status report

Related music:
Knaan - Wavin Flag - 2010, FLAC , lossless Single tracks+.cue download Knaan - Wavin Flag - 2010, FLAC , lossless Single tracks+.cue
Lossless
English
52.6 MB
4.6
/images/5/8/knaan-wavin-flag-20102c-flac-2c-lossless-single-tracks2bcue.jpg
The Best Of - Booker T And The MGs - 1984 FLAC download The Best Of - Booker T And The MGs - 1984 FLAC
Lossless
English
219.5 MB
4.7
/images/5/2/the-best-of-booker-t-and-the-mgs-1984-flac-.jpg
Gigi Dagostino - Lamour Toujours, Flac +M3U download Gigi Dagostino - Lamour Toujours, Flac +M3U
Lossless
Italian
834.8 MB
4.8
/images/5/3/gigi-dagostino-lamour-toujours2c-flac-2bm3u.jpg
Magma - K A Eac Flac Cue- download Magma - K A Eac Flac Cue-
Lossless
Other
338.4 MB
4.0
/images/5/3/magma-k-a-eac-flac-cue-.jpg
Dire Straits One World 1979-1985 FLAC CUE download Dire Straits One World 1979-1985 FLAC CUE
Lossless
English
891.9 MB
4.8
/images/5/0/dire-straits-one-world-1979-1985-flac-cue.jpg
OAR In Between Now And Then 2003 FLAC+CUE RLG download OAR In Between Now And Then 2003 FLAC+CUE RLG
Lossless
English
453.4 MB
4.8
/images/5/8/oar-in-between-now-and-then-2003-flac2bcue-rlg.jpg
Portishead 1997 FLAC+CUE RLG download Portishead 1997 FLAC+CUE RLG
Lossless
English
289.5 MB
4.9
/images/5/5/portishead-1997-flac2bcue-rlg.jpg
Don McLean American Pie 1980 FLAC+CUE RLG download Don McLean American Pie 1980 FLAC+CUE RLG
Lossless
English
179.6 MB
4.2
/images/5/6/don-mclean-american-pie-1980-flac2bcue-rlg.jpg
Third Eye Blind 1997 FLAC+CUE RLG download Third Eye Blind 1997 FLAC+CUE RLG
Lossless
English
390.8 MB
4.9
/images/5/0/third-eye-blind-1997-flac2bcue-rlg.jpg
Fat 1997 FLAC+CUE RLG download Fat 1997 FLAC+CUE RLG
Lossless
English
299.3 MB
4.8
/images/5/5/fat-1997-flac2bcue-rlg.jpg