Files 42316
» » Daddy Yankee - La Nueva Y La Ex 1080p Music Video
Language: Spanish
Size: 63.0 MB
Votes: 398
Downloaded: 45
Category: Album
Format: MP3, FLAC
4.8

File list

  • Daddy Yankee - La Nueva Y La Ex [Music Video] 1080p [Sbyky].MP4 (63.0 MB)

La Nueva Y La Ex. Исполнитель.

La Nueva Y La Ex.

Forums Video Mania Music Videos Masters & BLU-RAY Master & Master RIP . . Daddy Yankee - Despacito (osem) ProRes Original. 777josem, Jan 2, 2018, in forum: MASTER & MASTER RIP. Daddy Yankee - La Nueva y La Ex. Discussion in 'MASTER & MASTER RIP' started by shlanderous, Apr 18, 2015. Page 1 of 2. 1 2 Next . shlanderous Well-Known Member V. I. P. Donor. Joined: Oct 20, 2013. Replies

Feedback :: Обратная Связь.

Top Recognition of Alice. Today on the radio: FM hits. New Music: September 2019. New Music: October 2019. Hits of the USA. New Year's dance floor. Download MP3. MP3 320Kbps, . 2 Mb MP3 128Kbps, . 1 Mb MP3 64Kbps, . Mb. Daddy Yankee.

Artist: Daddy Yankee Title: La Nueva Y La Ex Year: 2014 Source: Reel Label Video Codec: AVC 1080p. We have an extense video vault, and you can have it too, exchange videos with us. Only accept Best Quality sources like ProRes, DV, or High Bitrate Master Sources. Sample: Write to admincvidcollector. com if you want this video. Video Services like PromoOnly, ETV, or videos with TAG or Logo, encoded videos to mkv, etc, not accepted.

Video ID : 1 Format : AVC Format/Info : Advanced Video Codec Format profile : [email protected] 0 Format settings, CABAC : Yes Format settings, ReFrames : 3 frames Codec ID : avc1 Codec ID/Info : Advanced Video Coding Duration : 4mn 0s Duration LastFrame : -41ms Bit rate : 2 072 Kbps Width : 1 920 pixels Height : 1 080 pixels Display aspect ratio : 16:9 Frame.

La Nueva y la Ex - Karaokemedia. Открывайте новую музыку каждый день. Лента с персональными рекомендациями и музыкальными новинками, радио, подборки на любой вкус, удобное управление своей коллекцией. Миллионы композиций бесплатно и в хорошем качестве.


General
Complete name : Daddy Yankee - La Nueva Y La Ex [Music Video] 1080p [Sbyky].MP4
Format : MPEG-4
Format profile : Base Media
Codec ID : isom
File size : 63.0 MiB
Duration : 4mn 0s
Overall bit rate mode : Variable
Overall bit rate : 2 200 Kbps
Encoded date : UTC 2014-02-15 16:44:20
Tagged date : UTC 2014-02-15 16:44:20
Video
ID : 1
Format : AVC
Format/Info : Advanced Video Codec
Format profile : [email protected]
Format settings, CABAC : Yes
Format settings, ReFrames : 3 frames
Codec ID : avc1
Codec ID/Info : Advanced Video Coding
Duration : 4mn 0s
Duration_LastFrame : -41ms
Bit rate : 2 072 Kbps
Width : 1 920 pixels
Height : 1 080 pixels
Display aspect ratio : 16:9
Frame rate mode : Constant
Frame rate : 24.000 fps
Color space : YUV
Chroma subsampling : 4:2:0
Bit depth : 8 bits
Scan type : Progressive
Bits/(Pixel*Frame) : 0.042
Stream size : 59.3 MiB (94%)
Encoded date : UTC 2014-02-15 16:44:20
Tagged date : UTC 2014-02-15 16:44:20
Audio
ID : 2
Format : AAC
Format/Info : Advanced Audio Codec
Format profile : LC
Codec ID : 40
Duration : 4mn 0s
Bit rate mode : Variable
Bit rate : 126 Kbps
Channel(s) : 2 channels
Channel positions : Front: L R
Sampling rate : 44.1 KHz
Compression mode : Lossy
Stream size : 3.60 MiB (6%)
Encoded date : UTC 2014-02-15 16:41:50
Tagged date : UTC 2014-02-15 16:41:50
Shared By Sbyky

Related music:
Justin Timberlake - Not A Bad Thing 1080p Music Video download Justin Timberlake - Not A Bad Thing 1080p Music Video
Video
English
111.7 MB
4.3
/images/5/7/justin-timberlake-not-a-bad-thing-1080p-music-video-.jpg
Sevyn Streeter Ft Kid Ink - nEXt 1080p Music Video download Sevyn Streeter Ft Kid Ink - nEXt 1080p Music Video
Video
English
93.7 MB
4.4
/images/5/4/sevyn-streeter-ft-kid-ink-next-1080p-music-video-.jpg
Ashanti Ft Rick Ross - I Got It 1080p Music Video download Ashanti Ft Rick Ross - I Got It 1080p Music Video
Video
English
75.1 MB
4.1
/images/5/6/ashanti-ft-rick-ross-i-got-it-1080p-music-video-.jpg
One Direction - You & I 1080p Music Video download One Direction - You & I 1080p Music Video
Video
English
111.1 MB
4.5
/images/5/5/one-direction-you-26-i-1080p-music-video-.jpg
Karmin - I Want It All 1080p Music Video download Karmin - I Want It All 1080p Music Video
Video
English
85.2 MB
4.6
/images/5/4/karmin-i-want-it-all-1080p-music-video-.jpg
The Pretty Reckless - Heaven Knows 1080p Music Video download The Pretty Reckless - Heaven Knows 1080p Music Video
Video
English
53.7 MB
4.2
/images/5/5/the-pretty-reckless-heaven-knows-1080p-music-video-.jpg
Daddy Yankee - La Nueva Y La Ex 720p Music Video download Daddy Yankee - La Nueva Y La Ex 720p Music Video
Video
Spanish
33.2 MB
4.6
/images/5/5/daddy-yankee-la-nueva-y-la-ex-720p-music-video-.jpg
Shakira - Empire 1080p Music Video download Shakira - Empire 1080p Music Video
Video
English
94.2 MB
4.1
/images/5/0/shakira-empire-1080p-music-video-.jpg
Alizée - Blonde 1080p Music Video download Alizée - Blonde 1080p Music Video
Video
French
86.3 MB
4.3
/images/5/6/alizc3a9e-blonde-1080p-music-video-.jpg
Fall Out Boy Ft Courtney Love - Rat A Tat 1080p Music Video download Fall Out Boy Ft Courtney Love - Rat A Tat 1080p Music Video
Video
English
127.4 MB
4.2
/images/5/0/fall-out-boy-ft-courtney-love-rat-a-tat-1080p-music-video-.jpg